  0
SECTION
  2
HEADER
  9
$ACADVER
  1
AC1015
  9
$ACADMAINTVER
 70
     6
  9
$DWGCODEPAGE
  3
ANSI_1252
  9
$INSBASE
 10
0.0
 20
0.0
 30
0.0
  9
$EXTMIN
 10
-105.0000000000001
 20
0.0
 30
0.0
  9
$EXTMAX
 10
0.0
 20
148.5000000000001
 30
0.0
  9
$LIMMIN
 10
0.0
 20
0.0
  9
$LIMMAX
 10
12.0
 20
9.0
  9
$ORTHOMODE
 70
     0
  9
$REGENMODE
 70
     1
  9
$FILLMODE
 70
     1
  9
$QTEXTMODE
 70
     0
  9
$MIRRTEXT
 70
     1
  9
$LTSCALE
 40
1.0
  9
$ATTMODE
 70
     1
  9
$TEXTSIZE
 40
0.2
  9
$TRACEWID
 40
0.05
  9
$TEXTSTYLE
  7
Standard
  9
$CLAYER
  8
0
  9
$CELTYPE
  6
ByLayer
  9
$CECOLOR
 62
   256
  9
$CELTSCALE
 40
1.0
  9
$DISPSILH
 70
     0
  9
$DIMSCALE
 40
1.0
  9
$DIMASZ
 40
0.18
  9
$DIMEXO
 40
0.0625
  9
$DIMDLI
 40
0.38
  9
$DIMRND
 40
0.0
  9
$DIMDLE
 40
0.0
  9
$DIMEXE
 40
0.18
  9
$DIMTP
 40
0.0
  9
$DIMTM
 40
0.0
  9
$DIMTXT
 40
0.18
  9
$DIMCEN
 40
0.09
  9
$DIMTSZ
 40
0.0
  9
$DIMTOL
 70
     0
  9
$DIMLIM
 70
     0
  9
$DIMTIH
 70
     1
  9
$DIMTOH
 70
     1
  9
$DIMSE1
 70
     0
  9
$DIMSE2
 70
     0
  9
$DIMTAD
 70
     0
  9
$DIMZIN
 70
     0
  9
$DIMBLK
  1

  9
$DIMASO
 70
     1
  9
$DIMSHO
 70
     1
  9
$DIMPOST
  1

  9
$DIMAPOST
  1

  9
$DIMALT
 70
     0
  9
$DIMALTD
 70
     2
  9
$DIMALTF
 40
25.4
  9
$DIMLFAC
 40
1.0
  9
$DIMTOFL
 70
     0
  9
$DIMTVP
 40
0.0
  9
$DIMTIX
 70
     0
  9
$DIMSOXD
 70
     0
  9
$DIMSAH
 70
     0
  9
$DIMBLK1
  1

  9
$DIMBLK2
  1

  9
$DIMSTYLE
  2
Standard
  9
$DIMCLRD
 70
     0
  9
$DIMCLRE
 70
     0
  9
$DIMCLRT
 70
     0
  9
$DIMTFAC
 40
1.0
  9
$DIMGAP
 40
0.09
  9
$DIMJUST
 70
     0
  9
$DIMSD1
 70
     0
  9
$DIMSD2
 70
     0
  9
$DIMTOLJ
 70
     1
  9
$DIMTZIN
 70
     0
  9
$DIMALTZ
 70
     0
  9
$DIMALTTZ
 70
     0
  9
$DIMUPT
 70
     0
  9
$DIMDEC
 70
     4
  9
$DIMTDEC
 70
     4
  9
$DIMALTU
 70
     2
  9
$DIMALTTD
 70
     2
  9
$DIMTXSTY
  7
Standard
  9
$DIMAUNIT
 70
     0
  9
$DIMADEC
 70
     0
  9
$DIMALTRND
 40
0.0
  9
$DIMAZIN
 70
     0
  9
$DIMDSEP
 70
    46
  9
$DIMATFIT
 70
     3
  9
$DIMFRAC
 70
     0
  9
$DIMLDRBLK
  1

  9
$DIMLUNIT
 70
     2
  9
$DIMLWD
 70
    -2
  9
$DIMLWE
 70
    -2
  9
$DIMTMOVE
 70
     0
  9
$LUNITS
 70
     2
  9
$LUPREC
 70
     4
  9
$SKETCHINC
 40
0.1
  9
$FILLETRAD
 40
0.5
  9
$AUNITS
 70
     0
  9
$AUPREC
 70
     0
  9
$MENU
  1
.
  9
$ELEVATION
 40
0.0
  9
$PELEVATION
 40
0.0
  9
$THICKNESS
 40
0.0
  9
$LIMCHECK
 70
     0
  9
$CHAMFERA
 40
0.5
  9
$CHAMFERB
 40
0.5
  9
$CHAMFERC
 40
1.0
  9
$CHAMFERD
 40
0.0
  9
$SKPOLY
 70
     0
  9
$TDCREATE
 40
2456997.43342478
  9
$TDUCREATE
 40
2456997.391758114
  9
$TDUPDATE
 40
2456997.433424965
  9
$TDUUPDATE
 40
2456997.391758299
  9
$TDINDWG
 40
0.0000000116
  9
$TDUSRTIMER
 40
0.0000000116
  9
$USRTIMER
 70
     1
  9
$ANGBASE
 50
0.0
  9
$ANGDIR
 70
     0
  9
$PDMODE
 70
     0
  9
$PDSIZE
 40
0.0
  9
$PLINEWID
 40
0.0
  9
$SPLFRAME
 70
     0
  9
$SPLINETYPE
 70
     6
  9
$SPLINESEGS
 70
     8
  9
$HANDSEED
  5
409
  9
$SURFTAB1
 70
     6
  9
$SURFTAB2
 70
     6
  9
$SURFTYPE
 70
     6
  9
$SURFU
 70
     6
  9
$SURFV
 70
     6
  9
$UCSBASE
  2

  9
$UCSNAME
  2

  9
$UCSORG
 10
0.0
 20
0.0
 30
0.0
  9
$UCSXDIR
 10
1.0
 20
0.0
 30
0.0
  9
$UCSYDIR
 10
0.0
 20
1.0
 30
0.0
  9
$UCSORTHOREF
  2

  9
$UCSORTHOVIEW
 70
     0
  9
$UCSORGTOP
 10
0.0
 20
0.0
 30
0.0
  9
$UCSORGBOTTOM
 10
0.0
 20
0.0
 30
0.0
  9
$UCSORGLEFT
 10
0.0
 20
0.0
 30
0.0
  9
$UCSORGRIGHT
 10
0.0
 20
0.0
 30
0.0
  9
$UCSORGFRONT
 10
0.0
 20
0.0
 30
0.0
  9
$UCSORGBACK
 10
0.0
 20
0.0
 30
0.0
  9
$PUCSBASE
  2

  9
$PUCSNAME
  2

  9
$PUCSORG
 10
0.0
 20
0.0
 30
0.0
  9
$PUCSXDIR
 10
1.0
 20
0.0
 30
0.0
  9
$PUCSYDIR
 10
0.0
 20
1.0
 30
0.0
  9
$PUCSORTHOREF
  2

  9
$PUCSORTHOVIEW
 70
     0
  9
$PUCSORGTOP
 10
0.0
 20
0.0
 30
0.0
  9
$PUCSORGBOTTOM
 10
0.0
 20
0.0
 30
0.0
  9
$PUCSORGLEFT
 10
0.0
 20
0.0
 30
0.0
  9
$PUCSORGRIGHT
 10
0.0
 20
0.0
 30
0.0
  9
$PUCSORGFRONT
 10
0.0
 20
0.0
 30
0.0
  9
$PUCSORGBACK
 10
0.0
 20
0.0
 30
0.0
  9
$USERI1
 70
     0
  9
$USERI2
 70
     0
  9
$USERI3
 70
     0
  9
$USERI4
 70
     0
  9
$USERI5
 70
     0
  9
$USERR1
 40
18.1
  9
$USERR2
 40
0.0
  9
$USERR3
 40
0.0
  9
$USERR4
 40
0.0
  9
$USERR5
 40
0.0
  9
$WORLDVIEW
 70
     1
  9
$SHADEDGE
 70
     3
  9
$SHADEDIF
 70
    70
  9
$TILEMODE
 70
     1
  9
$MAXACTVP
 70
    64
  9
$PINSBASE
 10
0.0
 20
0.0
 30
0.0
  9
$PLIMCHECK
 70
     0
  9
$PEXTMIN
 10
1.00000000000000E+20
 20
1.00000000000000E+20
 30
1.00000000000000E+20
  9
$PEXTMAX
 10
-1.00000000000000E+20
 20
-1.00000000000000E+20
 30
-1.00000000000000E+20
  9
$PLIMMIN
 10
0.0
 20
0.0
  9
$PLIMMAX
 10
12.0
 20
9.0
  9
$UNITMODE
 70
     0
  9
$VISRETAIN
 70
     1
  9
$PLINEGEN
 70
     0
  9
$PSLTSCALE
 70
     1
  9
$TREEDEPTH
 70
  3020
  9
$CMLSTYLE
  2
Standard
  9
$CMLJUST
 70
     0
  9
$CMLSCALE
 40
1.0
  9
$PROXYGRAPHICS
 70
     1
  9
$MEASUREMENT
 70
     1
  9
$CELWEIGHT
370
    -1
  9
$ENDCAPS
280
     0
  9
$JOINSTYLE
280
     0
  9
$LWDISPLAY
290
     0
  9
$INSUNITS
 70
     4
  9
$HYPERLINKBASE
  1

  9
$STYLESHEET
  1

  9
$XEDIT
290
     1
  9
$CEPSNTYPE
380
     0
  9
$PSTYLEMODE
290
     1
  9
$FINGERPRINTGUID
  2
{34AF127B-2B0B-4154-8DEA-505720762C6A}
  9
$VERSIONGUID
  2
{FAEB1C32-E019-11D5-929B-00C0DF256EC4}
  9
$EXTNAMES
290
     1
  9
$PSVPSCALE
 40
0.0
  9
$OLESTARTUP
290
     0
  0
ENDSEC
  0
SECTION
  2
CLASSES
  0
CLASS
  1
ACDBDICTIONARYWDFLT
  2
AcDbDictionaryWithDefault
  3
ObjectDBX Classes
 90
        0
280
     0
281
     0
  0
CLASS
  1
VISUALSTYLE
  2
AcDbVisualStyle
  3
ObjectDBX Classes
 90
     4095
280
     0
281
     0
  0
CLASS
  1
MATERIAL
  2
AcDbMaterial
  3
ObjectDBX Classes
 90
     1153
280
     0
281
     0
  0
CLASS
  1
DICTIONARYVAR
  2
AcDbDictionaryVar
  3
ObjectDBX Classes
 90
        0
280
     0
281
     0
  0
CLASS
  1
ACDBPLACEHOLDER
  2
AcDbPlaceHolder
  3
ObjectDBX Classes
 90
        0
280
     0
281
     0
  0
CLASS
  1
LAYOUT
  2
AcDbLayout
  3
ObjectDBX Classes
 90
        0
280
     0
281
     0
  0
ENDSEC
  0
SECTION
  2
TABLES
  0
TABLE
  2
VPORT
  5
8
330
0
100
AcDbSymbolTable
 70
     1
  0
VPORT
  5
29
330
8
100
AcDbSymbolTableRecord
100
AcDbViewportTableRecord
  2
*Active
 70
     0
 10
0.0
 20
0.0
 11
1.0
 21
1.0
 12
-52.50000000000005
 22
74.25000000000006
 13
0.0
 23
0.0
 14
0.5
 24
0.5
 15
0.5
 25
0.5
 16
0.0
 26
0.0
 36
1.0
 17
0.0
 27
0.0
 37
0.0
 40
163.3500000000001
 41
1.60267857142857
 42
50.0
 43
0.0
 44
0.0
 50
0.0
 51
0.0
 71
     0
 72
   100
 73
     1
 74
     3
 75
     0
 76
     0
 77
     0
 78
     0
281
     0
 65
     1
110
0.0
120
0.0
130
0.0
111
1.0
121
0.0
131
0.0
112
0.0
122
1.0
132
0.0
 79
     0
146
0.0
  0
ENDTAB
  0
TABLE
  2
LTYPE
  5
5
330
0
100
AcDbSymbolTable
 70
     8
  0
LTYPE
  5
14
330
5
100
AcDbSymbolTableRecord
100
AcDbLinetypeTableRecord
  2
ByBlock
 70
     0
  3

 72
    65
 73
     0
 40
0.0
  0
LTYPE
  5
15
330
5
100
AcDbSymbolTableRecord
100
AcDbLinetypeTableRecord
  2
ByLayer
 70
     0
  3

 72
    65
 73
     0
 40
0.0
  0
LTYPE
  5
16
330
5
100
AcDbSymbolTableRecord
100
AcDbLinetypeTableRecord
  2
Continuous
 70
     0
  3
Solid line
 72
    65
 73
     0
 40
0.0
  0
LTYPE
  5
3F
330
5
100
AcDbSymbolTableRecord
100
AcDbLinetypeTableRecord
  2
DASHED
 70
     0
  3
Dashed
 72
    65
 73
     2
 40
15.0
 49
7.0
 74
     0
 49
-8.0
 74
     0
  0
LTYPE
  5
40
330
5
100
AcDbSymbolTableRecord
100
AcDbLinetypeTableRecord
  2
DOTTED
 70
     0
  3
Dotted
 72
    65
 73
     2
 40
1.0
 49
0.0
 74
     0
 49
-1.0
 74
     0
  0
LTYPE
  5
41
330
5
100
AcDbSymbolTableRecord
100
AcDbLinetypeTableRecord
  2
DOT_CENTER
 70
     0
  3
Dot_Center
 72
    65
 73
     4
 40
14.0
 49
12.0
 74
     0
 49
-1.0
 74
     0
 49
0.0
 74
     0
 49
-1.0
 74
     0
  0
LTYPE
  5
42
330
5
100
AcDbSymbolTableRecord
100
AcDbLinetypeTableRecord
  2
LONG_DASHED
 70
     0
  3
Long_Dashed
 72
    65
 73
     2
 40
15.0
 49
10.0
 74
     0
 49
-5.0
 74
     0
  0
LTYPE
  5
43
330
5
100
AcDbSymbolTableRecord
100
AcDbLinetypeTableRecord
  2
DASH_CENTER
 70
     0
  3
Dash_Center
 72
    65
 73
     4
 40
14.0
 49
11.0
 74
     0
 49
-1.0
 74
     0
 49
1.0
 74
     0
 49
-1.0
 74
     0
  0
LTYPE
  5
44
330
5
100
AcDbSymbolTableRecord
100
AcDbLinetypeTableRecord
  2
PHANTOM
 70
     0
  3
Phantom
 72
    65
 73
     6
 40
13.0
 49
10.0
 74
     0
 49
-1.0
 74
     0
 49
0.0
 74
     0
 49
-1.0
 74
     0
 49
0.0
 74
     0
 49
-1.0
 74
     0
  0
LTYPE
  5
45
330
5
100
AcDbSymbolTableRecord
100
AcDbLinetypeTableRecord
  2
CENTER_DASH_DASH
 70
     0
  3
Center_Dash_Dash
 72
    65
 73
     6
 40
14.0
 49
9.0
 74
     0
 49
-1.0
 74
     0
 49
1.0
 74
     0
 49
-1.0
 74
     0
 49
1.0
 74
     0
 49
-1.0
 74
     0
  0
ENDTAB
  0
TABLE
  2
LAYER
  5
2
330
0
100
AcDbSymbolTable
 70
     2
  0
LAYER
  5
10
330
2
100
AcDbSymbolTableRecord
100
AcDbLayerTableRecord
  2
0
 70
     0
 62
     7
  6
Continuous
370
    -3
390
F
  0
LAYER
  5
46
330
2
100
AcDbSymbolTableRecord
100
AcDbLayerTableRecord
  2
1
 70
     0
 62
     7
  6
Continuous
370
    -3
390
F
  0
ENDTAB
  0
TABLE
  2
STYLE
  5
3
330
0
100
AcDbSymbolTable
 70
     4
  0
STYLE
  5
11
330
3
100
AcDbSymbolTableRecord
100
AcDbTextStyleTableRecord
  2
Standard
 70
     0
 40
0.0
 41
1.0
 50
0.0
 71
     0
 42
0.2
  3
txt
  4

  0
STYLE
  5
390
330
3
100
AcDbSymbolTableRecord
100
AcDbTextStyleTableRecord
  2
CONVERTER_11
 70
     0
 40
0.0
 41
1.2
 50
0.0
 71
     0
 42
0.2
  3
ARIAL.TTF
  4

  0
STYLE
  5
392
330
3
100
AcDbSymbolTableRecord
100
AcDbTextStyleTableRecord
  2
CONVERTER_12
 70
     0
 40
0.0
 41
0.95
 50
0.0
 71
     0
 42
0.2
  3
simplex.shx
  4

  0
STYLE
  5
39F
330
3
100
AcDbSymbolTableRecord
100
AcDbTextStyleTableRecord
  2
CONVERTER_13
 70
     0
 40
0.0
 41
0.76
 50
0.0
 71
     0
 42
0.2
  3
simplex.shx
  4

  0
ENDTAB
  0
TABLE
  2
VIEW
  5
6
330
0
100
AcDbSymbolTable
 70
     0
  0
ENDTAB
  0
TABLE
  2
UCS
  5
7
330
0
100
AcDbSymbolTable
 70
     0
  0
ENDTAB
  0
TABLE
  2
APPID
  5
9
330
0
100
AcDbSymbolTable
 70
     1
  0
APPID
  5
12
330
9
100
AcDbSymbolTableRecord
100
AcDbRegAppTableRecord
  2
ACAD
 70
     0
  0
ENDTAB
  0
TABLE
  2
DIMSTYLE
  5
A
330
0
100
AcDbSymbolTable
 70
     4
100
AcDbDimStyleTable
  0
DIMSTYLE
105
27
330
A
100
AcDbSymbolTableRecord
100
AcDbDimStyleTableRecord
  2
Standard
 70
     0
178
     0
340
11
  0
DIMSTYLE
105
3BE
102
{ACAD_REACTORS
330
3BF
102
}
330
A
100
AcDbSymbolTableRecord
100
AcDbDimStyleTableRecord
  2
ME10_DIM_10
 70
     0
 41
1.5
 42
0.25
 44
0.5
 73
     0
 74
     0
 77
     1
 78
     8
140
1.5
147
1.0
172
     1
173
     1
174
     1
175
     1
176
     2
177
     2
271
     2
178
     4
271
     2
340
392
  0
DIMSTYLE
105
3C9
102
{ACAD_REACTORS
330
3CA
102
}
330
A
100
AcDbSymbolTableRecord
100
AcDbDimStyleTableRecord
  2
ME10_DIM_11
 70
     0
 41
1.5
 42
0.25
 44
0.5
 73
     0
 74
     0
 77
     1
 78
     8
140
1.5
147
1.0
172
     1
173
     1
174
     1
175
     1
176
     2
177
     2
271
     2
178
     4
271
     2
340
392
  0
DIMSTYLE
105
3D4
102
{ACAD_REACTORS
330
3D5
102
}
330
A
100
AcDbSymbolTableRecord
100
AcDbDimStyleTableRecord
  2
ME10_DIM_12
 70
     0
 41
1.5
 42
0.25
 44
0.5
 73
     0
 74
     0
 77
     1
 78
     8
140
1.5
147
1.0
172
     1
173
     1
174
     1
175
     1
176
     2
177
     2
271
     2
178
     4
271
     2
340
392
  0
ENDTAB
  0
TABLE
  2
BLOCK_RECORD
  5
1
330
0
100
AcDbSymbolTable
 70
     4
  0
BLOCK_RECORD
  5
1F
330
1
100
AcDbSymbolTableRecord
100
AcDbBlockTableRecord
  2
*Model_Space
340
22
  0
BLOCK_RECORD
  5
1B
330
1
100
AcDbSymbolTableRecord
100
AcDbBlockTableRecord
  2
*Paper_Space
340
1E
  0
BLOCK_RECORD
  5
23
330
1
100
AcDbSymbolTableRecord
100
AcDbBlockTableRecord
  2
*Paper_Space0
340
26
  0
BLOCK_RECORD
  5
3B5
330
1
100
AcDbSymbolTableRecord
100
AcDbBlockTableRecord
  2
*D1
340
0
  0
BLOCK_RECORD
  5
3C0
330
1
100
AcDbSymbolTableRecord
100
AcDbBlockTableRecord
  2
*D2
340
0
  0
BLOCK_RECORD
  5
3CB
330
1
100
AcDbSymbolTableRecord
100
AcDbBlockTableRecord
  2
*D3
340
0
  0
ENDTAB
  0
ENDSEC
  0
SECTION
  2
BLOCKS
  0
BLOCK
  5
20
330
1F
100
AcDbEntity
  8
0
100
AcDbBlockBegin
  2
*Model_Space
 70
     0
 10
0.0
 20
0.0
 30
0.0
  3
*Model_Space
  1

  0
ENDBLK
  5
21
330
1F
100
AcDbEntity
  8
0
100
AcDbBlockEnd
  0
BLOCK
  5
1C
330
1B
100
AcDbEntity
 67
     1
  8
0
100
AcDbBlockBegin
  2
*Paper_Space
 70
     0
 10
0.0
 20
0.0
 30
0.0
  3
*Paper_Space
  1

  0
ENDBLK
  5
1D
330
1B
100
AcDbEntity
 67
     1
  8
0
100
AcDbBlockEnd
  0
BLOCK
  5
24
330
23
100
AcDbEntity
  8
0
100
AcDbBlockBegin
  2
*Paper_Space0
 70
     0
 10
0.0
 20
0.0
 30
0.0
  3
*Paper_Space0
  1

  0
ENDBLK
  5
25
330
23
100
AcDbEntity
  8
0
100
AcDbBlockEnd
  0
BLOCK
  5
3BC
330
3B5
100
AcDbEntity
  8
0
100
AcDbBlockBegin
  2
*D1
 70
     1
 10
0.0
 20
0.0
 30
0.0
  3
*D1
  1

  0
LINE
  5
3B6
330
3B5
100
AcDbEntity
  8
1
  6
Continuous
 62
     2
100
AcDbLine
 10
-36.58255012116817
 20
106.571466744302
 30
0.0
 11
-15.58255012116818
 21
106.571466744302
 31
0.0
  0
LINE
  5
3B7
330
3B5
100
AcDbEntity
  8
1
  6
Continuous
 62
     2
100
AcDbLine
 10
-36.58255012116817
 20
86.4429400432739
 30
0.0
 11
-36.58255012116817
 21
107.071466744302
 31
0.0
  0
LINE
  5
3B8
330
3B5
100
AcDbEntity
  8
1
  6
Continuous
 62
     2
100
AcDbLine
 10
-15.58255012116818
 20
86.4429400432739
 30
0.0
 11
-15.58255012116818
 21
107.071466744302
 31
0.0
  0
SOLID
  5
3B9
330
3B5
100
AcDbEntity
  8
1
 62
     2
100
AcDbTrace
 10
-35.08255012116817
 20
106.7689454906831
 30
0.0
 11
-35.08255012116817
 21
106.3739879979209
 31
0.0
 12
-36.58255012116817
 22
106.571466744302
 32
0.0
 13
-36.58255012116817
 23
106.571466744302
 33
0.0
  0
SOLID
  5
3BA
330
3B5
100
AcDbEntity
  8
1
 62
     2
100
AcDbTrace
 10
-17.08255012116818
 20
106.3739879979209
 30
0.0
 11
-17.08255012116818
 21
106.7689454906831
 31
0.0
 12
-15.58255012116818
 22
106.571466744302
 32
0.0
 13
-15.58255012116818
 23
106.571466744302
 33
0.0
  0
MTEXT
  5
3BB
330
3B5
100
AcDbEntity
  8
1
 62
     4
100
AcDbMText
 10
-26.98255012116818
 20
107.571466744302
 30
0.0
 40
1.5
 41
0.0
 71
     7
 72
     1
  1
21
  7
CONVERTER_12
 11
0.9999999999970619
 21
2.424068405545306E-6
 31
0.0
 73
     1
 44
0.60024009603842
  0
ENDBLK
  5
3BD
330
3B5
100
AcDbEntity
  8
0
100
AcDbBlockEnd
  0
BLOCK
  5
3C7
330
3C0
100
AcDbEntity
  8
0
100
AcDbBlockBegin
  2
*D2
 70
     1
 10
0.0
 20
0.0
 30
0.0
  3
*D2
  1

  0
LINE
  5
3C1
330
3C0
100
AcDbEntity
  8
1
  6
Continuous
 62
     2
100
AcDbLine
 10
-74.5327095258527
 20
106.571466744302
 30
0.0
 11
-53.53270952585271
 21
106.571466744302
 31
0.0
  0
LINE
  5
3C2
330
3C0
100
AcDbEntity
  8
1
  6
Continuous
 62
     2
100
AcDbLine
 10
-74.5327095258527
 20
86.4429400432739
 30
0.0
 11
-74.5327095258527
 21
107.071466744302
 31
0.0
  0
LINE
  5
3C3
330
3C0
100
AcDbEntity
  8
1
  6
Continuous
 62
     2
100
AcDbLine
 10
-53.53270952585271
 20
86.4429400432739
 30
0.0
 11
-53.53270952585271
 21
107.071466744302
 31
0.0
  0
SOLID
  5
3C4
330
3C0
100
AcDbEntity
  8
1
 62
     2
100
AcDbTrace
 10
-73.0327095258527
 20
106.7689454906831
 30
0.0
 11
-73.0327095258527
 21
106.3739879979209
 31
0.0
 12
-74.5327095258527
 22
106.571466744302
 32
0.0
 13
-74.5327095258527
 23
106.571466744302
 33
0.0
  0
SOLID
  5
3C5
330
3C0
100
AcDbEntity
  8
1
 62
     2
100
AcDbTrace
 10
-55.03270952585271
 20
106.3739879979209
 30
0.0
 11
-55.03270952585271
 21
106.7689454906831
 31
0.0
 12
-53.53270952585271
 22
106.571466744302
 32
0.0
 13
-53.53270952585271
 23
106.571466744302
 33
0.0
  0
MTEXT
  5
3C6
330
3C0
100
AcDbEntity
  8
1
 62
     4
100
AcDbMText
 10
-64.9327095258527
 20
107.571466744302
 30
0.0
 40
1.5
 41
0.0
 71
     7
 72
     1
  1
21
  7
CONVERTER_12
 11
0.9999999999970619
 21
2.424068405545306E-6
 31
0.0
 73
     1
 44
0.60024009603842
  0
ENDBLK
  5
3C8
330
3C0
100
AcDbEntity
  8
0
100
AcDbBlockEnd
  0
BLOCK
  5
3D2
330
3CB
100
AcDbEntity
  8
0
100
AcDbBlockBegin
  2
*D3
 70
     1
 10
0.0
 20
0.0
 30
0.0
  3
*D3
  1

  0
LINE
  5
3CC
330
3CB
100
AcDbEntity
  8
1
  6
Continuous
 62
     2
100
AcDbLine
 10
-82.2897214393881
 20
99.9929400432739
 30
0.0
 11
-82.2897214393881
 21
56.89294004327391
 31
0.0
  0
LINE
  5
3CD
330
3CB
100
AcDbEntity
  8
1
  6
Continuous
 62
     2
100
AcDbLine
 10
-66.78270952585271
 20
56.89294004327391
 30
0.0
 11
-82.7897214393881
 21
56.89294004327391
 31
0.0
  0
LINE
  5
3CE
330
3CB
100
AcDbEntity
  8
1
  6
Continuous
 62
     2
100
AcDbLine
 10
-73.0327095258527
 20
99.9929400432739
 30
0.0
 11
-82.7897214393881
 21
99.9929400432739
 31
0.0
  0
SOLID
  5
3CF
330
3CB
100
AcDbEntity
  8
1
 62
     2
100
AcDbTrace
 10
-82.09224269300701
 20
98.4929400432739
 30
0.0
 11
-82.4872001857692
 21
98.4929400432739
 31
0.0
 12
-82.2897214393881
 22
99.9929400432739
 32
0.0
 13
-82.2897214393881
 23
99.9929400432739
 33
0.0
  0
SOLID
  5
3D0
330
3CB
100
AcDbEntity
  8
1
 62
     2
100
AcDbTrace
 10
-82.4872001857692
 20
58.39294004327391
 30
0.0
 11
-82.09224269300701
 21
58.39294004327391
 31
0.0
 12
-82.2897214393881
 22
56.89294004327391
 32
0.0
 13
-82.2897214393881
 23
56.89294004327391
 33
0.0
  0
MTEXT
  5
3D1
330
3CB
100
AcDbEntity
  8
1
 62
     4
100
AcDbMText
 10
-83.43972143938811
 20
76.6054400432739
 30
0.0
 40
1.5
 41
0.0
 71
     7
 72
     1
  1
43,1
  7
CONVERTER_12
 11
0.0
 21
1.0
 31
0.0
 73
     1
 44
0.60024009603842
  0
ENDBLK
  5
3D3
330
3CB
100
AcDbEntity
  8
0
100
AcDbBlockEnd
  0
ENDSEC
  0
SECTION
  2
ENTITIES
  0
LINE
  5
47
330
1F
100
AcDbEntity
  8
1
  6
Continuous
 62
     4
100
AcDbLine
 10
-61.66484910753445
 20
132.7730879265561
 30
0.0
 11
-61.1358310827659
 21
132.7730879265561
 31
0.0
  0
LINE
  5
48
330
1F
100
AcDbEntity
  8
1
  6
Continuous
 62
     4
100
AcDbLine
 10
-61.47816076433125
 20
132.5397274975519
 30
0.0
 11
-60.79080822799205
 21
132.5397274975519
 31
0.0
  0
LINE
  5
49
330
1F
100
AcDbEntity
  8
1
  6
Continuous
 62
     4
100
AcDbLine
 10
-61.29147242112795
 20
132.306367068548
 30
0.0
 11
-60.9774965711953
 21
132.306367068548
 31
0.0
  0
LINE
  5
4A
330
1F
100
AcDbEntity
  8
1
  6
Continuous
 62
     4
100
AcDbLine
 10
-61.1358310827659
 20
133.2702840746422
 30
0.0
 11
-61.1358310827659
 21
132.7730879265561
 31
0.0
  0
LINE
  5
4B
330
1F
100
AcDbEntity
  8
1
  6
Continuous
 62
     4
100
AcDbLine
 10
-61.1358310827659
 20
132.7730879265561
 30
0.0
 11
-60.6041198847888
 21
132.7730879265561
 31
0.0
  0
LINE
  5
4C
330
1F
100
AcDbEntity
  8
1
  6
Continuous
 62
     4
100
AcDbLine
 10
-60.9023449144796
 20
30.95682980795489
 30
0.0
 11
-61.4340561124568
 21
30.95682980795489
 31
0.0
  0
LINE
  5
4D
330
1F
100
AcDbEntity
  8
1
  6
Continuous
 62
     4
100
AcDbLine
 10
-61.4340561124568
 20
30.95682980795489
 30
0.0
 11
-61.4340561124568
 21
30.45963365986869
 31
0.0
  0
LINE
  5
4E
330
1F
100
AcDbEntity
  8
1
  6
Continuous
 62
     4
100
AcDbLine
 10
-61.27572160088615
 20
31.42355066596299
 30
0.0
 11
-61.58969745081875
 21
31.42355066596299
 31
0.0
  0
LINE
  5
4F
330
1F
100
AcDbEntity
  8
1
  6
Continuous
 62
     4
100
AcDbLine
 10
-61.0890332576829
 20
31.19019023695894
 30
0.0
 11
-61.77638579402215
 21
31.19019023695894
 31
0.0
  0
LINE
  5
50
330
1F
100
AcDbEntity
  8
1
  6
Continuous
 62
     4
100
AcDbLine
 10
-61.4340561124568
 20
30.95682980795489
 30
0.0
 11
-61.9630741372253
 21
30.95682980795489
 31
0.0
  0
LINE
  5
51
330
1F
100
AcDbEntity
  8
1
  6
Continuous
 62
     7
100
AcDbLine
 10
-94.5
 20
12.5
 30
0.0
 11
-2.5
 21
12.5
 31
0.0
  0
LINE
  5
52
330
1F
100
AcDbEntity
  8
1
  6
Continuous
 62
     7
100
AcDbLine
 10
-91.0
 20
10.0
 30
0.0
 11
-91.0
 21
12.5
 31
0.0
  0
LINE
  5
53
330
1F
100
AcDbEntity
  8
1
  6
Continuous
 62
     7
100
AcDbLine
 10
-82.0
 20
10.0
 30
0.0
 11
-82.0
 21
12.5
 31
0.0
  0
LINE
  5
54
330
1F
100
AcDbEntity
  8
1
  6
Continuous
 62
     7
100
AcDbLine
 10
-94.5
 20
15.0
 30
0.0
 11
-2.5
 21
15.0
 31
0.0
  0
LINE
  5
55
330
1F
100
AcDbEntity
  8
1
  6
Continuous
 62
     7
100
AcDbLine
 10
-91.0
 20
12.5
 30
0.0
 11
-91.0
 21
15.0
 31
0.0
  0
LINE
  5
56
330
1F
100
AcDbEntity
  8
1
  6
Continuous
 62
     7
100
AcDbLine
 10
-82.0
 20
12.5
 30
0.0
 11
-82.0
 21
15.0
 31
0.0
  0
LINE
  5
57
330
1F
100
AcDbEntity
  8
1
  6
Continuous
 62
     7
100
AcDbLine
 10
-94.5
 20
17.5
 30
0.0
 11
-2.5
 21
17.5
 31
0.0
  0
LINE
  5
58
330
1F
100
AcDbEntity
  8
1
  6
Continuous
 62
     7
100
AcDbLine
 10
-91.0
 20
15.0
 30
0.0
 11
-91.0
 21
17.5
 31
0.0
  0
LINE
  5
59
330
1F
100
AcDbEntity
  8
1
  6
Continuous
 62
     7
100
AcDbLine
 10
-82.0
 20
15.0
 30
0.0
 11
-82.0
 21
17.5
 31
0.0
  0
LINE
  5
5A
330
1F
100
AcDbEntity
  8
1
  6
Continuous
 62
     7
100
AcDbLine
 10
-94.5
 20
20.0
 30
0.0
 11
-2.5
 21
20.0
 31
0.0
  0
LINE
  5
5B
330
1F
100
AcDbEntity
  8
1
  6
Continuous
 62
     7
100
AcDbLine
 10
-91.0
 20
17.5
 30
0.0
 11
-91.0
 21
20.0
 31
0.0
  0
LINE
  5
5C
330
1F
100
AcDbEntity
  8
1
  6
Continuous
 62
     7
100
AcDbLine
 10
-82.0
 20
17.5
 30
0.0
 11
-82.0
 21
20.0
 31
0.0
  0
LINE
  5
5D
330
1F
100
AcDbEntity
  8
1
  6
Continuous
 62
     7
100
AcDbLine
 10
-94.5
 20
146.0000000000001
 30
0.0
 11
-94.5
 21
2.49999999999994
 31
0.0
  0
LINE
  5
5E
330
1F
100
AcDbEntity
  8
1
  6
Continuous
 62
     7
100
AcDbLine
 10
-2.5
 20
146.0000000000001
 30
0.0
 11
-94.5
 21
146.0000000000001
 31
0.0
  0
LINE
  5
5F
330
1F
100
AcDbEntity
  8
1
  6
Continuous
 62
     7
100
AcDbLine
 10
-2.5
 20
2.49999999999994
 30
0.0
 11
-2.5
 21
146.0000000000001
 31
0.0
  0
LINE
  5
60
330
1F
100
AcDbEntity
  8
1
  6
Continuous
 62
     7
100
AcDbLine
 10
0.0
 20
148.5000000000001
 30
0.0
 11
-105.0000000000001
 21
148.5000000000001
 31
0.0
  0
LINE
  5
61
330
1F
100
AcDbEntity
  8
1
  6
Continuous
 62
     7
100
AcDbLine
 10
-105.0000000000001
 20
148.5000000000001
 30
0.0
 11
-105.0000000000001
 21
0.0
 31
0.0
  0
LINE
  5
62
330
1F
100
AcDbEntity
  8
1
  6
Continuous
 62
     7
100
AcDbLine
 10
-105.0000000000001
 20
0.0
 30
0.0
 11
0.0
 21
0.0
 31
0.0
  0
LINE
  5
63
330
1F
100
AcDbEntity
  8
1
  6
Continuous
 62
     7
100
AcDbLine
 10
0.0
 20
0.0
 30
0.0
 11
0.0
 21
148.5000000000001
 31
0.0
  0
LINE
  5
64
330
1F
100
AcDbEntity
  8
1
  6
Continuous
 62
     7
100
AcDbLine
 10
-105.0000000000001
 20
74.2499999999999
 30
0.0
 11
-97.50000000000006
 21
74.2499999999999
 31
0.0
  0
LINE
  5
65
330
1F
100
AcDbEntity
  8
1
  6
Continuous
 62
     7
100
AcDbLine
 10
-94.5
 20
6.25
 30
0.0
 11
-79.5
 21
6.25
 31
0.0
  0
LINE
  5
66
330
1F
100
AcDbEntity
  8
1
  6
Continuous
 62
     7
100
AcDbLine
 10
-79.5
 20
10.0
 30
0.0
 11
-79.5
 21
2.5
 31
0.0
  0
LINE
  5
67
330
1F
100
AcDbEntity
  8
1
  6
Continuous
 62
     7
100
AcDbLine
 10
-94.5
 20
10.0
 30
0.0
 11
-2.5
 21
10.0
 31
0.0
  0
LINE
  5
68
330
1F
100
AcDbEntity
  8
1
  6
Continuous
 62
     7
100
AcDbLine
 10
-15.82369931125731
 20
10.0
 30
0.0
 11
-15.82369931125731
 21
2.5
 31
0.0
  0
LINE
  5
69
102
{ACAD_REACTORS
330
3D7
102
}
330
1F
100
AcDbEntity
  8
1
  6
Continuous
 62
     7
100
AcDbLine
 10
-8.66184965562866
 20
6.25
 30
0.0
 11
-8.66184965562866
 21
7.11602540378442
 31
0.0
  0
LINE
  5
6A
102
{ACAD_REACTORS
330
3D7
102
}
330
1F
100
AcDbEntity
  8
1
  6
Continuous
 62
     7
100
AcDbLine
 10
-8.66184965562866
 20
7.11602540378442
 30
0.0
 11
-9.08968087197997
 21
6.375
 31
0.0
  0
LINE
  5
6B
102
{ACAD_REACTORS
330
3D7
102
}
330
1F
100
AcDbEntity
  8
1
  6
Continuous
 62
     7
100
AcDbLine
 10
-9.2340184392774
 20
6.375
 30
0.0
 11
-9.66184965562866
 21
7.11602540378442
 31
0.0
  0
LINE
  5
6C
102
{ACAD_REACTORS
330
3D7
102
}
330
1F
100
AcDbEntity
  8
1
  6
Continuous
 62
     7
100
AcDbLine
 10
-9.66184965562866
 20
7.11602540378442
 30
0.0
 11
-9.66184965562866
 21
6.25
 31
0.0
  0
LINE
  5
6D
330
1F
100
AcDbEntity
  8
1
  6
Continuous
 62
     7
100
AcDbLine
 10
-13.37006729319944
 20
6.32218213217067
 30
0.0
 11
-9.16184965562866
 21
8.75
 31
0.0
  0
LINE
  5
6E
330
1F
100
AcDbEntity
  8
1
  6
Continuous
 62
     7
100
AcDbLine
 10
-9.16184965562866
 20
8.75
 30
0.0
 11
-4.95363201805793
 21
6.32218213217067
 31
0.0
  0
LINE
  5
6F
330
1F
100
AcDbEntity
  8
1
  6
Continuous
 62
     7
100
AcDbLine
 10
-4.95363201805793
 20
6.17781786782928
 30
0.0
 11
-9.16184965562866
 21
3.75
 31
0.0
  0
LINE
  5
70
330
1F
100
AcDbEntity
  8
1
  6
Continuous
 62
     7
100
AcDbLine
 10
-9.16184965562866
 20
3.75
 30
0.0
 11
-13.37006729319944
 21
6.17781786782928
 31
0.0
  0
LINE
  5
71
102
{ACAD_REACTORS
330
3D7
102
}
330
1F
100
AcDbEntity
  8
1
  6
Continuous
 62
     7
100
AcDbLine
 10
-9.99518298896203
 20
6.25
 30
0.0
 11
-9.99518298896203
 21
7.86560865601728
 31
0.0
  0
LINE
  5
72
102
{ACAD_REACTORS
330
3D7
102
}
330
1F
100
AcDbEntity
  8
1
  6
Continuous
 62
     7
100
AcDbLine
 10
-9.7479661471503
 20
7.93185020913614
 30
0.0
 11
-9.16184965562866
 21
6.91666666666663
 31
0.0
  0
LINE
  5
73
102
{ACAD_REACTORS
330
3D7
102
}
330
1F
100
AcDbEntity
  8
1
  6
Continuous
 62
     7
100
AcDbLine
 10
-9.99518298896203
 20
6.25
 30
0.0
 11
-9.99518298896203
 21
5.42379253631645
 31
0.0
  0
LINE
  5
74
102
{ACAD_REACTORS
330
3D7
102
}
330
1F
100
AcDbEntity
  8
1
  6
Continuous
 62
     7
100
AcDbLine
 10
-9.66184965562866
 20
5.42379253631645
 30
0.0
 11
-9.66184965562866
 21
6.25
 31
0.0
  0
LINE
  5
75
102
{ACAD_REACTORS
330
3D7
102
}
330
1F
100
AcDbEntity
  8
1
  6
Continuous
 62
     7
100
AcDbLine
 10
-8.66184965562866
 20
6.25
 30
0.0
 11
-8.66184965562866
 21
4.6541345353009
 31
0.0
  0
LINE
  5
76
102
{ACAD_REACTORS
330
3D7
102
}
330
1F
100
AcDbEntity
  8
1
  6
Continuous
 62
     7
100
AcDbLine
 10
-8.32851632229534
 20
4.6541345353009
 30
0.0
 11
-8.32851632229534
 21
7.86560865601728
 31
0.0
  0
LINE
  5
77
102
{ACAD_REACTORS
330
3D7
102
}
330
1F
100
AcDbEntity
  8
1
  6
Continuous
 62
     7
100
AcDbLine
 10
-8.57573316410702
 20
7.93185020913614
 30
0.0
 11
-9.16184965562866
 21
6.91666666666663
 31
0.0
  0
LINE
  5
78
102
{ACAD_REACTORS
330
3D8
102
}
330
1F
100
AcDbEntity
  8
1
  6
Continuous
 62
     7
100
AcDbLine
 10
-10.66184965562866
 20
5.13501057401629
 30
0.0
 11
-10.66184965562866
 21
7.46125008008369
 31
0.0
  0
LINE
  5
79
102
{ACAD_REACTORS
330
3D8
102
}
330
1F
100
AcDbEntity
  8
1
  6
Continuous
 62
     7
100
AcDbLine
 10
-10.32851632229534
 20
7.46125008008369
 30
0.0
 11
-10.32851632229534
 21
5.13501057401635
 31
0.0
  0
LINE
  5
7A
102
{ACAD_REACTORS
330
3D8
102
}
330
1F
100
AcDbEntity
  8
1
  6
Continuous
 62
     7
100
AcDbLine
 10
-10.32851632229534
 20
5.13501057401635
 30
0.0
 11
-9.24522924671374
 21
4.5100372611808
 31
0.0
  0
LINE
  5
7B
102
{ACAD_REACTORS
330
3D8
102
}
330
1F
100
AcDbEntity
  8
1
  6
Continuous
 62
     7
100
AcDbLine
 10
-9.41180339787695
 20
4.2213087324979
 30
0.0
 11
-10.49509047345851
 21
4.84628204533345
 31
0.0
  0
LINE
  5
7C
102
{ACAD_REACTORS
330
3D6
102
}
330
1F
100
AcDbEntity
  8
1
  6
Continuous
 62
     7
100
AcDbLine
 10
-10.99518298896203
 20
7.07663469546833
 30
0.0
 11
-10.99518298896203
 21
5.51962595863165
 31
0.0
  0
LINE
  5
7D
102
{ACAD_REACTORS
330
3D6
102
}
330
1F
100
AcDbEntity
  8
1
  6
Continuous
 62
     7
100
AcDbLine
 10
-10.99518298896203
 20
5.51962595863165
 30
0.0
 11
-10.99518298896203
 21
5.42336530453161
 31
0.0
  0
LINE
  5
7E
102
{ACAD_REACTORS
330
3D6
102
}
330
1F
100
AcDbEntity
  8
1
  6
Continuous
 62
     7
100
AcDbLine
 10
-11.32851632229534
 20
5.42336530453161
 30
0.0
 11
-11.32851632229534
 21
7.07663469546833
 31
0.0
  0
LINE
  5
7F
102
{ACAD_REACTORS
330
3D9
102
}
330
1F
100
AcDbEntity
  8
1
  6
Continuous
 62
     7
100
AcDbLine
 10
-7.74522924671373
 20
7.60561434442513
 30
0.0
 11
-7.07856258004711
 21
7.22099895980972
 31
0.0
  0
LINE
  5
80
102
{ACAD_REACTORS
330
3D9
102
}
330
1F
100
AcDbEntity
  8
1
  6
Continuous
 62
     7
100
AcDbLine
 10
-7.24513673121027
 20
6.93227043112688
 30
0.0
 11
-7.66184965562865
 21
7.17268173367597
 31
0.0
  0
LINE
  5
81
102
{ACAD_REACTORS
330
3D9
102
}
330
1F
100
AcDbEntity
  8
1
  6
Continuous
 62
     7
100
AcDbLine
 10
-7.66184965562865
 20
7.17268173367597
 30
0.0
 11
-7.66184965562865
 21
6.41666666666663
 31
0.0
  0
LINE
  5
82
102
{ACAD_REACTORS
330
3D9
102
}
330
1F
100
AcDbEntity
  8
1
  6
Continuous
 62
     7
100
AcDbLine
 10
-7.66184965562865
 20
6.41666666666663
 30
0.0
 11
-7.16184965562865
 21
6.41666666666663
 31
0.0
  0
LINE
  5
83
102
{ACAD_REACTORS
330
3D9
102
}
330
1F
100
AcDbEntity
  8
1
  6
Continuous
 62
     7
100
AcDbLine
 10
-7.16184965562865
 20
6.08333333333332
 30
0.0
 11
-7.66184965562865
 21
6.08333333333332
 31
0.0
  0
LINE
  5
84
102
{ACAD_REACTORS
330
3D9
102
}
330
1F
100
AcDbEntity
  8
1
  6
Continuous
 62
     7
100
AcDbLine
 10
-7.66184965562865
 20
6.08333333333332
 30
0.0
 11
-7.66184965562865
 21
5.32731826632397
 31
0.0
  0
LINE
  5
85
102
{ACAD_REACTORS
330
3D9
102
}
330
1F
100
AcDbEntity
  8
1
  6
Continuous
 62
     7
100
AcDbLine
 10
-7.66184965562865
 20
5.32731826632397
 30
0.0
 11
-7.24513673121027
 21
5.56772956887312
 31
0.0
  0
LINE
  5
86
102
{ACAD_REACTORS
330
3D9
102
}
330
1F
100
AcDbEntity
  8
1
  6
Continuous
 62
     7
100
AcDbLine
 10
-7.07856258004711
 20
5.27900104019017
 30
0.0
 11
-7.74522924671373
 21
4.89438565557487
 31
0.0
  0
LINE
  5
87
102
{ACAD_REACTORS
330
3D9
102
}
330
1F
100
AcDbEntity
  8
1
  6
Continuous
 62
     7
100
AcDbLine
 10
-7.99518298896197
 20
5.03874991991631
 30
0.0
 11
-7.99518298896197
 21
7.46125008008369
 31
0.0
  0
LINE
  5
88
330
1F
100
AcDbEntity
  8
1
  6
Continuous
 62
     7
100
AcDbLine
 10
-24.5
 20
10.0
 30
0.0
 11
-24.5
 21
2.5
 31
0.0
  0
LINE
  5
89
330
1F
100
AcDbEntity
  8
1
  6
Continuous
 62
     7
100
AcDbLine
 10
-94.5
 20
10.0
 30
0.0
 11
-94.5
 21
2.49999999999994
 31
0.0
  0
LINE
  5
8A
330
1F
100
AcDbEntity
  8
1
  6
Continuous
 62
     7
100
AcDbLine
 10
-94.5
 20
2.49999999999994
 30
0.0
 11
-2.5
 21
2.49999999999994
 31
0.0
  0
LINE
  5
8B
330
1F
100
AcDbEntity
  8
1
  6
Continuous
 62
     7
100
AcDbLine
 10
-62.65385130253893
 20
79.87976724490942
 30
0.0
 11
-63.21953672748816
 21
79.31408181996018
 31
0.0
  0
LINE
  5
8C
330
1F
100
AcDbEntity
  8
1
  6
Continuous
 62
     7
100
AcDbLine
 10
-64.84588232421723
 20
82.0717982665877
 30
0.0
 11
-65.41156774916644
 21
81.50611284163847
 31
0.0
  0
LINE
  5
8D
330
1F
100
AcDbEntity
  8
1
  6
Continuous
 62
     7
100
AcDbLine
 10
-63.21953672748813
 20
82.07179826658773
 30
0.0
 11
-62.65385130253893
 21
81.50611284163848
 31
0.0
  0
LINE
  5
8E
330
1F
100
AcDbEntity
  8
1
  6
Continuous
 62
     7
100
AcDbLine
 10
-64.84588232421723
 20
79.31408181996017
 30
0.0
 11
-65.4115677491665
 21
79.87976724490942
 31
0.0
  0
LINE
  5
8F
330
1F
100
AcDbEntity
  8
1
  6
Continuous
 62
     4
100
AcDbLine
 10
-62.65385130253893
 20
81.50611284163848
 30
0.0
 11
-63.64380079620008
 21
80.86971673857059
 31
0.0
  0
LINE
  5
90
330
1F
100
AcDbEntity
  8
1
  6
Continuous
 62
     4
100
AcDbLine
 10
-63.21953672748813
 20
82.07179826658773
 30
0.0
 11
-63.85593283055604
 21
81.08184877292656
 31
0.0
  0
LINE
  5
91
330
1F
100
AcDbEntity
  8
1
  6
Continuous
 62
     4
100
AcDbLine
 10
-65.4115677491665
 20
79.87976724490942
 30
0.0
 11
-64.42161825550531
 21
80.51616334797731
 31
0.0
  0
LINE
  5
92
330
1F
100
AcDbEntity
  8
1
  6
Continuous
 62
     4
100
AcDbLine
 10
-64.84588232421723
 20
79.31408181996017
 30
0.0
 11
-64.20948622114932
 21
80.30403131362134
 31
0.0
  0
LINE
  5
93
330
1F
100
AcDbEntity
  8
1
  6
Continuous
 62
     4
100
AcDbLine
 10
-63.21953672748816
 20
79.31408181996018
 30
0.0
 11
-63.85593283055604
 21
80.30403131362134
 31
0.0
  0
LINE
  5
94
330
1F
100
AcDbEntity
  8
1
  6
Continuous
 62
     4
100
AcDbLine
 10
-62.65385130253893
 20
79.87976724490942
 30
0.0
 11
-63.64380079620011
 21
80.5161633479773
 31
0.0
  0
LINE
  5
95
330
1F
100
AcDbEntity
  8
1
  6
Continuous
 62
     4
100
AcDbLine
 10
-64.20948622114932
 20
81.08184877292655
 30
0.0
 11
-64.84588232421723
 21
82.0717982665877
 31
0.0
  0
LINE
  5
96
330
1F
100
AcDbEntity
  8
1
  6
Continuous
 62
     4
100
AcDbLine
 10
-64.42161825550531
 20
80.86971673857059
 30
0.0
 11
-65.41156774916644
 21
81.50611284163847
 31
0.0
  0
LINE
  5
97
330
1F
100
AcDbEntity
  8
1
  6
Continuous
 62
     4
100
AcDbLine
 10
-63.64380079620011
 20
80.5161633479773
 30
0.0
 11
-63.85593283055604
 21
80.30403131362134
 31
0.0
  0
LINE
  5
98
330
1F
100
AcDbEntity
  8
1
  6
Continuous
 62
     4
100
AcDbLine
 10
-63.64380079620008
 20
80.86971673857059
 30
0.0
 11
-63.85593283055604
 21
81.08184877292656
 31
0.0
  0
LINE
  5
99
330
1F
100
AcDbEntity
  8
1
  6
Continuous
 62
     4
100
AcDbLine
 10
-64.20948622114932
 20
81.08184877292655
 30
0.0
 11
-64.42161825550531
 21
80.86971673857059
 31
0.0
  0
LINE
  5
9A
330
1F
100
AcDbEntity
  8
1
  6
Continuous
 62
     4
100
AcDbLine
 10
-64.20948622114932
 20
80.30403131362134
 30
0.0
 11
-64.42161825550531
 21
80.51616334797731
 31
0.0
  0
LINE
  5
9B
330
1F
100
AcDbEntity
  8
1
  6
Continuous
 62
     7
100
AcDbLine
 10
-62.65385130253893
 20
79.87976724490942
 30
0.0
 11
-63.2548920665474
 21
80.69294004327402
 31
0.0
  0
LINE
  5
9C
330
1F
100
AcDbEntity
  8
1
  6
Continuous
 62
     7
100
AcDbLine
 10
-64.84588232421723
 20
82.0717982665877
 30
0.0
 11
-64.0327095258526
 21
81.47075750257922
 31
0.0
  0
LINE
  5
9D
330
1F
100
AcDbEntity
  8
1
  6
Continuous
 62
     7
100
AcDbLine
 10
-65.41156774916644
 20
81.50611284163847
 30
0.0
 11
-64.8105269851579
 21
80.69294004327394
 31
0.0
  0
LINE
  5
9E
330
1F
100
AcDbEntity
  8
1
  6
Continuous
 62
     7
100
AcDbLine
 10
-64.84588232421723
 20
79.31408181996017
 30
0.0
 11
-64.03270952585271
 21
79.91512258396872
 31
0.0
  0
LINE
  5
9F
330
1F
100
AcDbEntity
  8
1
  6
Continuous
 62
     7
100
AcDbLine
 10
-65.4115677491665
 20
79.87976724490942
 30
0.0
 11
-64.8105269851579
 21
80.69294004327394
 31
0.0
  0
LINE
  5
A0
330
1F
100
AcDbEntity
  8
1
  6
Continuous
 62
     7
100
AcDbLine
 10
-62.65385130253893
 20
81.50611284163848
 30
0.0
 11
-63.2548920665474
 21
80.69294004327402
 31
0.0
  0
LINE
  5
A1
330
1F
100
AcDbEntity
  8
1
  6
Continuous
 62
     7
100
AcDbLine
 10
-63.21953672748813
 20
82.07179826658773
 30
0.0
 11
-64.0327095258526
 21
81.47075750257922
 31
0.0
  0
LINE
  5
A2
330
1F
100
AcDbEntity
  8
1
  6
Continuous
 62
     7
100
AcDbLine
 10
-63.21953672748816
 20
79.31408181996018
 30
0.0
 11
-64.03270952585271
 21
79.91512258396872
 31
0.0
  0
LINE
  5
A3
330
1F
100
AcDbEntity
  8
1
  6
Continuous
 62
     4
100
AcDbLine
 10
-63.64380079620011
 20
80.5161633479773
 30
0.0
 11
-63.735246548633
 21
80.63047053851857
 31
0.0
  0
LINE
  5
A4
330
1F
100
AcDbEntity
  8
1
  6
Continuous
 62
     4
100
AcDbLine
 10
-63.64380079620008
 20
80.86971673857059
 30
0.0
 11
-63.73524654863303
 21
80.75540954802936
 31
0.0
  0
LINE
  5
A5
330
1F
100
AcDbEntity
  8
1
  6
Continuous
 62
     4
100
AcDbLine
 10
-64.09517903060811
 20
80.39547706605428
 30
0.0
 11
-64.20948622114932
 21
80.30403131362134
 31
0.0
  0
LINE
  5
A6
330
1F
100
AcDbEntity
  8
1
  6
Continuous
 62
     4
100
AcDbLine
 10
-63.85593283055604
 20
80.30403131362134
 30
0.0
 11
-63.97024002109725
 21
80.39547706605433
 31
0.0
  0
LINE
  5
A7
330
1F
100
AcDbEntity
  8
1
  6
Continuous
 62
     4
100
AcDbLine
 10
-63.85593283055604
 20
81.08184877292656
 30
0.0
 11
-63.97024002109725
 21
80.99040302049359
 31
0.0
  0
LINE
  5
A8
330
1F
100
AcDbEntity
  8
1
  6
Continuous
 62
     4
100
AcDbLine
 10
-64.20948622114932
 20
81.08184877292655
 30
0.0
 11
-64.09517903060808
 21
80.99040302049364
 31
0.0
  0
LINE
  5
A9
330
1F
100
AcDbEntity
  8
1
  6
Continuous
 62
     4
100
AcDbLine
 10
-64.42161825550531
 20
80.86971673857059
 30
0.0
 11
-64.3301725030723
 21
80.75540954802939
 31
0.0
  0
LINE
  5
AA
330
1F
100
AcDbEntity
  8
1
  6
Continuous
 62
     4
100
AcDbLine
 10
-64.3301725030723
 20
80.63047053851851
 30
0.0
 11
-64.42161825550531
 21
80.51616334797731
 31
0.0
  0
LINE
  5
AB
330
1F
100
AcDbEntity
  8
1
  6
Continuous
 62
     7
100
AcDbLine
 10
-63.21953672748813
 20
82.07179826658773
 30
0.0
 11
-62.39037548318387
 21
82.900959510892
 31
0.0
  0
LINE
  5
AC
330
1F
100
AcDbEntity
  8
1
  6
Continuous
 62
     7
100
AcDbLine
 10
-62.65385130253893
 20
81.50611284163848
 30
0.0
 11
-61.82469005823467
 21
82.33527408594274
 31
0.0
  0
LINE
  5
AD
330
1F
100
AcDbEntity
  8
1
  6
Continuous
 62
     7
100
AcDbLine
 10
-65.4115677491665
 20
79.87976724490942
 30
0.0
 11
-66.2394155390844
 21
79.05191945499148
 31
0.0
  0
LINE
  5
AE
330
1F
100
AcDbEntity
  8
1
  6
Continuous
 62
     7
100
AcDbLine
 10
-64.84588232421723
 20
79.31408181996017
 30
0.0
 11
-65.67373011413517
 21
78.48623403004221
 31
0.0
  0
LINE
  5
AF
330
1F
100
AcDbEntity
  8
1
  6
Continuous
 62
     7
100
AcDbLine
 10
-63.55517703726856
 20
26.27294004327363
 30
0.0
 11
-66.61686423301394
 21
26.27294004327363
 31
0.0
  0
LINE
  5
B0
330
1F
100
AcDbEntity
  8
1
  6
Continuous
 62
     7
100
AcDbLine
 10
-61.23270952585271
 20
26.27294004327363
 30
0.0
 11
-61.57101029844118
 21
26.27294004327363
 31
0.0
  0
LINE
  5
B1
330
1F
100
AcDbEntity
  8
1
  6
Continuous
 62
     7
100
AcDbLine
 10
-61.57101029844118
 20
26.27294004327363
 30
0.0
 11
-62.18004619285507
 21
26.27294004327363
 31
0.0
  0
LINE
  5
B2
330
1F
100
AcDbEntity
  8
1
  6
Continuous
 62
     7
100
AcDbLine
 10
-62.18004619285507
 20
26.27294004327363
 30
0.0
 11
-63.55517703726856
 21
26.27294004327363
 31
0.0
  0
LINE
  5
B3
330
1F
100
AcDbEntity
  8
1
  6
Continuous
 62
     7
100
AcDbLine
 10
-66.83270952585268
 20
26.27294004327363
 30
0.0
 11
-66.83270952585268
 21
25.92294004327361
 31
0.0
  0
LINE
  5
B4
330
1F
100
AcDbEntity
  8
1
  6
Continuous
 62
     7
100
AcDbLine
 10
-61.23270952585271
 20
25.92294004327361
 30
0.0
 11
-61.23270952585271
 21
26.27294004327363
 31
0.0
  0
LINE
  5
B5
330
1F
100
AcDbEntity
  8
1
  6
Continuous
 62
     7
100
AcDbLine
 10
-66.61686423301394
 20
26.27294004327363
 30
0.0
 11
-66.83270952585268
 21
26.27294004327363
 31
0.0
  0
LINE
  5
B6
330
1F
100
AcDbEntity
  8
1
  6
Continuous
 62
     7
100
AcDbLine
 10
-61.23270952585271
 20
26.27294004327363
 30
0.0
 11
-61.83270952585296
 21
26.8729400432739
 31
0.0
  0
LINE
  5
B7
330
1F
100
AcDbEntity
  8
1
  6
Continuous
 62
     7
100
AcDbLine
 10
-66.2327095258524
 20
26.8729400432739
 30
0.0
 11
-66.83270952585268
 21
26.27294004327363
 31
0.0
  0
LINE
  5
B8
330
1F
100
AcDbEntity
  8
1
  6
Continuous
 62
     7
100
AcDbLine
 10
-66.07473387486796
 20
26.8729400432739
 30
0.0
 11
-66.61686423301394
 21
26.27294004327363
 31
0.0
  0
LINE
  5
B9
330
1F
100
AcDbEntity
  8
1
  6
Continuous
 62
     7
100
AcDbLine
 10
-65.69738302724564
 20
26.8729400432739
 30
0.0
 11
-66.13933174442987
 21
26.27294004327366
 31
0.0
  0
LINE
  5
BA
330
1F
100
AcDbEntity
  8
1
  6
Continuous
 62
     7
100
AcDbLine
 10
-65.11924798739098
 20
26.8729400432739
 30
0.0
 11
-65.40770952585264
 21
26.27294004327363
 31
0.0
  0
LINE
  5
BB
330
1F
100
AcDbEntity
  8
1
  6
Continuous
 62
     7
100
AcDbLine
 10
-64.41006037347502
 20
26.8729400432739
 30
0.0
 11
-64.51024201443674
 21
26.27294004327363
 31
0.0
  0
LINE
  5
BC
330
1F
100
AcDbEntity
  8
1
  6
Continuous
 62
     7
100
AcDbLine
 10
-63.65535867823031
 20
26.8729400432739
 30
0.0
 11
-63.55517703726856
 21
26.27294004327363
 31
0.0
  0
LINE
  5
BD
330
1F
100
AcDbEntity
  8
1
  6
Continuous
 62
     7
100
AcDbLine
 10
-62.94617106431433
 20
26.8729400432739
 30
0.0
 11
-62.65770952585264
 21
26.27294004327363
 31
0.0
  0
LINE
  5
BE
330
1F
100
AcDbEntity
  8
1
  6
Continuous
 62
     7
100
AcDbLine
 10
-62.36803602445973
 20
26.8729400432739
 30
0.0
 11
-61.92608730727552
 21
26.27294004327363
 31
0.0
  0
LINE
  5
BF
330
1F
100
AcDbEntity
  8
1
  6
Continuous
 62
     7
100
AcDbLine
 10
-61.99068517683743
 20
26.8729400432739
 30
0.0
 11
-61.44855481869145
 21
26.27294004327363
 31
0.0
  0
LINE
  5
C0
330
1F
100
AcDbEntity
  8
1
  6
Continuous
 62
     7
100
AcDbLine
 10
-15.58255012116818
 20
82.7349643922892
 30
0.0
 11
-14.9825501211679
 21
83.27709475043518
 31
0.0
  0
LINE
  5
C1
330
1F
100
AcDbEntity
  8
1
  6
Continuous
 62
     7
100
AcDbLine
 10
-15.58255012116818
 20
82.3576135446669
 30
0.0
 11
-14.9825501211679
 21
82.79956226185112
 31
0.0
  0
LINE
  5
C2
330
1F
100
AcDbEntity
  8
1
  6
Continuous
 62
     7
100
AcDbLine
 10
-15.58255012116818
 20
81.7794785048123
 30
0.0
 11
-14.9825501211679
 21
82.06794004327398
 31
0.0
  0
LINE
  5
C3
330
1F
100
AcDbEntity
  8
1
  6
Continuous
 62
     7
100
AcDbLine
 10
-15.58255012116818
 20
81.07029089089633
 30
0.0
 11
-14.9825501211679
 21
81.17047253185807
 31
0.0
  0
LINE
  5
C4
330
1F
100
AcDbEntity
  8
1
  6
Continuous
 62
     7
100
AcDbLine
 10
-15.58255012116818
 20
80.31558919565163
 30
0.0
 11
-14.9825501211679
 21
80.21540755468989
 31
0.0
  0
LINE
  5
C5
330
1F
100
AcDbEntity
  8
1
  6
Continuous
 62
     7
100
AcDbLine
 10
-15.58255012116818
 20
79.60640158173564
 30
0.0
 11
-14.9825501211679
 21
79.31794004327398
 31
0.0
  0
LINE
  5
C6
330
1F
100
AcDbEntity
  8
1
  6
Continuous
 62
     7
100
AcDbLine
 10
-15.58255012116818
 20
79.02826654188098
 30
0.0
 11
-14.98255012116793
 21
78.58631782469676
 31
0.0
  0
LINE
  5
C7
330
1F
100
AcDbEntity
  8
1
  6
Continuous
 62
     7
100
AcDbLine
 10
-15.58255012116818
 20
78.65091569425867
 30
0.0
 11
-14.9825501211679
 21
78.10878533611269
 31
0.0
  0
LINE
  5
C8
330
1F
100
AcDbEntity
  8
1
  6
Continuous
 62
     7
100
AcDbLine
 10
-15.58255012116818
 20
78.49294004327422
 30
0.0
 11
-14.9825501211679
 21
77.89294004327395
 31
0.0
  0
LINE
  5
C9
330
1F
100
AcDbEntity
  8
1
  6
Continuous
 62
     7
100
AcDbLine
 10
-14.9825501211679
 20
83.49294004327392
 30
0.0
 11
-15.58255012116818
 21
82.89294004327367
 31
0.0
  0
LINE
  5
CA
330
1F
100
AcDbEntity
  8
1
  6
Continuous
 62
     7
100
AcDbLine
 10
-14.9825501211679
 20
78.10878533611269
 30
0.0
 11
-14.9825501211679
 21
77.89294004327395
 31
0.0
  0
LINE
  5
CB
330
1F
100
AcDbEntity
  8
1
  6
Continuous
 62
     7
100
AcDbLine
 10
-14.63255012116787
 20
83.49294004327392
 30
0.0
 11
-14.9825501211679
 21
83.49294004327392
 31
0.0
  0
LINE
  5
CC
330
1F
100
AcDbEntity
  8
1
  6
Continuous
 62
     7
100
AcDbLine
 10
-14.9825501211679
 20
77.89294004327395
 30
0.0
 11
-14.63255012116787
 21
77.89294004327395
 31
0.0
  0
LINE
  5
CD
330
1F
100
AcDbEntity
  8
1
  6
Continuous
 62
     7
100
AcDbLine
 10
-14.9825501211679
 20
82.54560337627156
 30
0.0
 11
-14.9825501211679
 21
81.17047253185807
 31
0.0
  0
LINE
  5
CE
330
1F
100
AcDbEntity
  8
1
  6
Continuous
 62
     7
100
AcDbLine
 10
-14.9825501211679
 20
83.15463927068545
 30
0.0
 11
-14.9825501211679
 21
82.54560337627156
 31
0.0
  0
LINE
  5
CF
330
1F
100
AcDbEntity
  8
1
  6
Continuous
 62
     7
100
AcDbLine
 10
-14.9825501211679
 20
83.49294004327392
 30
0.0
 11
-14.9825501211679
 21
83.15463927068545
 31
0.0
  0
LINE
  5
D0
330
1F
100
AcDbEntity
  8
1
  6
Continuous
 62
     7
100
AcDbLine
 10
-14.9825501211679
 20
81.17047253185807
 30
0.0
 11
-14.9825501211679
 21
78.10878533611269
 31
0.0
  0
LINE
  5
D1
330
1F
100
AcDbEntity
  8
1
  6
Continuous
 62
     7
100
AcDbLine
 10
-62.39037548318386
 20
25.41910408770833
 30
0.0
 11
-62.39037548318386
 21
25.92294004327361
 31
0.0
  0
LINE
  5
D2
330
1F
100
AcDbEntity
  8
1
  6
Continuous
 62
     7
100
AcDbLine
 10
-62.39037548318386
 20
25.92294004327361
 30
0.0
 11
-61.82469005823465
 21
25.92294004327361
 31
0.0
  0
LINE
  5
D3
330
1F
100
AcDbEntity
  8
1
  6
Continuous
 62
     7
100
AcDbLine
 10
-61.82469005823465
 20
25.92294004327361
 30
0.0
 11
-61.82469005823465
 21
25.62646923362297
 31
0.0
  0
LINE
  5
D4
330
1F
100
AcDbEntity
  8
1
  6
Continuous
 62
     7
100
AcDbLine
 10
-14.12831155405051
 20
79.05191945499148
 30
0.0
 11
-14.63255012116788
 21
79.05191945499148
 31
0.0
  0
LINE
  5
D5
330
1F
100
AcDbEntity
  8
1
  6
Continuous
 62
     7
100
AcDbLine
 10
-14.63255012116788
 20
79.05191945499148
 30
0.0
 11
-14.63255012116788
 21
78.48623403004221
 31
0.0
  0
LINE
  5
D6
330
1F
100
AcDbEntity
  8
1
  6
Continuous
 62
     7
100
AcDbLine
 10
-14.63255012116788
 20
78.48623403004221
 30
0.0
 11
-14.33551617354263
 21
78.48623403004221
 31
0.0
  0
LINE
  5
D7
330
1F
100
AcDbEntity
  8
0
  6
Continuous
 62
     7
100
AcDbLine
 10
-20.23255012116816
 20
64.19294004327391
 30
0.0
 11
-20.23255012116816
 21
61.59294004327391
 31
0.0
  0
LINE
  5
D8
330
1F
100
AcDbEntity
  8
0
  6
Continuous
 62
     7
100
AcDbLine
 10
-17.73255012116816
 20
59.8929400432739
 30
0.0
 11
-17.73255012116816
 21
56.8929400432739
 31
0.0
  0
LINE
  5
D9
330
1F
100
AcDbEntity
  8
0
  6
Continuous
 62
     7
100
AcDbLine
 10
-17.73255012116816
 20
56.8929400432739
 30
0.0
 11
-22.73255012116816
 21
56.8929400432739
 31
0.0
  0
LINE
  5
DA
330
1F
100
AcDbEntity
  8
0
  6
Continuous
 62
     7
100
AcDbLine
 10
-18.58255012116818
 20
64.19294004327391
 30
0.0
 11
-17.38255012116822
 21
64.19294004327391
 31
0.0
  0
LINE
  5
DB
330
1F
100
AcDbEntity
  8
0
  6
Continuous
 62
     7
100
AcDbLine
 10
-15.83255012116818
 20
64.39294004327391
 30
0.0
 11
-15.83255012116818
 21
66.19294004327391
 31
0.0
  0
LINE
  5
DC
330
1F
100
AcDbEntity
  8
0
  6
Continuous
 62
     7
100
AcDbLine
 10
-16.03255012116817
 20
64.19294004327391
 30
0.0
 11
-17.38255012116822
 21
64.19294004327391
 31
0.0
  0
LINE
  5
DD
330
1F
100
AcDbEntity
  8
0
  6
Continuous
 62
     7
100
AcDbLine
 10
-17.38255012116788
 20
66.19294004327391
 30
0.0
 11
-15.83255012116818
 21
66.19294004327391
 31
0.0
  0
LINE
  5
DE
330
1F
100
AcDbEntity
  8
0
  6
Continuous
 62
     7
100
AcDbLine
 10
-22.73255012116816
 20
59.96065247772068
 30
0.0
 11
-22.73255012116816
 21
56.8929400432739
 31
0.0
  0
LINE
  5
DF
330
1F
100
AcDbEntity
  8
0
  6
Continuous
 62
     7
100
AcDbLine
 10
-20.23255012116816
 20
63.9929400432739
 30
0.0
 11
-20.23255012116816
 21
60.09294004327391
 31
0.0
  0
LINE
  5
E0
330
1F
100
AcDbEntity
  8
0
  6
Continuous
 62
     7
100
AcDbLine
 10
-17.98255012116816
 20
63.9929400432739
 30
0.0
 11
-17.98255012116816
 21
60.09294004327298
 31
0.0
  0
LINE
  5
E1
330
1F
100
AcDbEntity
  8
0
  6
Continuous
 62
     7
100
AcDbLine
 10
-18.58255012116818
 20
64.39294004327391
 30
0.0
 11
-18.58255012116818
 21
64.19294004327391
 31
0.0
  0
LINE
  5
E2
330
1F
100
AcDbEntity
  8
0
  6
Continuous
 62
     7
100
AcDbLine
 10
-21.48255012116816
 20
64.19294004327391
 30
0.0
 11
-18.58255012116818
 21
64.19294004327391
 31
0.0
  0
LINE
  5
E3
330
1F
100
AcDbEntity
  8
0
  6
Continuous
 62
     7
100
AcDbLine
 10
-18.05023483688864
 20
59.8929400432739
 30
0.0
 11
-17.58255012116824
 21
59.8929400432739
 31
0.0
  0
LINE
  5
E4
330
1F
100
AcDbEntity
  8
0
  6
Continuous
 62
     7
100
AcDbLine
 10
-18.05023483688864
 20
59.8929400432739
 30
0.0
 11
-20.23255012116816
 21
59.8929400432739
 31
0.0
  0
LINE
  5
E5
330
1F
100
AcDbEntity
  8
0
  6
Continuous
 62
     7
100
AcDbLine
 10
-22.58255012116818
 20
59.8929400432739
 30
0.0
 11
-20.23255012116816
 21
59.8929400432739
 31
0.0
  0
LINE
  5
E6
330
1F
100
AcDbEntity
  8
0
  6
Continuous
 62
     7
100
AcDbLine
 10
-20.23255012116816
 20
59.8929400432739
 30
0.0
 11
-20.23255012116816
 21
60.09294004327391
 31
0.0
  0
LINE
  5
E7
330
1F
100
AcDbEntity
  8
0
  6
Continuous
 62
     7
100
AcDbLine
 10
-17.38255012116822
 20
64.19294004327391
 30
0.0
 11
-17.38255012116822
 21
60.09294004327391
 31
0.0
  0
LINE
  5
E8
330
1F
100
AcDbEntity
  8
0
  6
Continuous
 62
     7
100
AcDbLine
 10
-22.78255012116817
 20
63.9929400432739
 30
0.0
 11
-22.78255012116817
 21
60.09294004327391
 31
0.0
  0
LINE
  5
E9
330
1F
100
AcDbEntity
  8
0
  6
Continuous
 62
     7
100
AcDbLine
 10
-20.23255012116816
 20
63.9929400432739
 30
0.0
 11
-20.23255012116816
 21
64.19294004327391
 31
0.0
  0
LINE
  5
EA
330
1F
100
AcDbEntity
  8
0
  6
Continuous
 62
     7
100
AcDbLine
 10
-22.78255012116817
 20
64.19294004327391
 30
0.0
 11
-22.78255012116817
 21
63.9929400432739
 31
0.0
  0
LINE
  5
EB
330
1F
100
AcDbEntity
  8
0
  6
Continuous
 62
     7
100
AcDbLine
 10
-24.18255012116818
 20
64.39294004327391
 30
0.0
 11
-24.18255012116818
 21
64.19294004327391
 31
0.0
  0
LINE
  5
EC
330
1F
100
AcDbEntity
  8
0
  6
Continuous
 62
     7
100
AcDbLine
 10
-24.18255012116818
 20
64.39294004327391
 30
0.0
 11
-24.18255012116818
 21
66.19294004327391
 31
0.0
  0
LINE
  5
ED
330
1F
100
AcDbEntity
  8
0
  6
Continuous
 62
     7
100
AcDbLine
 10
-26.83255012116818
 20
64.39294004327392
 30
0.0
 11
-26.83255012116818
 21
66.19294004327391
 31
0.0
  0
LINE
  5
EE
330
1F
100
AcDbEntity
  8
0
  6
Continuous
 62
     7
100
AcDbLine
 10
-24.18255012116818
 20
64.19294004327391
 30
0.0
 11
-26.63255012116817
 21
64.19294004327391
 31
0.0
  0
LINE
  5
EF
330
1F
100
AcDbEntity
  8
0
  6
Continuous
 62
     7
100
AcDbLine
 10
-21.48255012116816
 20
66.19294004327391
 30
0.0
 11
-21.48255012116816
 21
64.39294004327391
 31
0.0
  0
LINE
  5
F0
330
1F
100
AcDbEntity
  8
0
  6
Continuous
 62
     7
100
AcDbLine
 10
-18.58255012116818
 20
66.19294004327391
 30
0.0
 11
-18.58255012116818
 21
64.39294004327391
 31
0.0
  0
LINE
  5
F1
330
1F
100
AcDbEntity
  8
0
  6
Continuous
 62
     7
100
AcDbLine
 10
-21.48255012116816
 20
64.39294004327391
 30
0.0
 11
-21.48255012116816
 21
64.19294004327391
 31
0.0
  0
LINE
  5
F2
330
1F
100
AcDbEntity
  8
0
  6
Continuous
 62
     7
100
AcDbLine
 10
-22.78255012116817
 20
64.19294004327391
 30
0.0
 11
-21.48255012116816
 21
64.19294004327391
 31
0.0
  0
LINE
  5
F3
330
1F
100
AcDbEntity
  8
0
  6
Continuous
 62
     7
100
AcDbLine
 10
-24.18255012116818
 20
64.19294004327391
 30
0.0
 11
-22.78255012116817
 21
64.19294004327391
 31
0.0
  0
LINE
  5
F4
330
1F
100
AcDbEntity
  8
0
  6
Continuous
 62
     7
100
AcDbLine
 10
-26.83255012116818
 20
75.19294004327391
 30
0.0
 11
-18.83255012116818
 21
75.19294004327391
 31
0.0
  0
LINE
  5
F5
330
1F
100
AcDbEntity
  8
0
  6
Continuous
 62
     7
100
AcDbLine
 10
-26.83255012116818
 20
66.19294004327391
 30
0.0
 11
-26.83255012116818
 21
75.19294004327391
 31
0.0
  0
LINE
  5
F6
330
1F
100
AcDbEntity
  8
0
  6
Continuous
 62
     7
100
AcDbLine
 10
-24.18255012116818
 20
66.19294004327391
 30
0.0
 11
-22.78255012116817
 21
66.19294004327391
 31
0.0
  0
LINE
  5
F7
330
1F
100
AcDbEntity
  8
0
  6
Continuous
 62
     7
100
AcDbLine
 10
-24.18255012116818
 20
66.19294004327391
 30
0.0
 11
-24.18255012116818
 21
72.19294004327391
 31
0.0
  0
LINE
  5
F8
330
1F
100
AcDbEntity
  8
0
  6
Continuous
 62
     7
100
AcDbLine
 10
-21.48255012116816
 20
72.19294004327391
 30
0.0
 11
-21.48255012116816
 21
66.19294004327391
 31
0.0
  0
LINE
  5
F9
330
1F
100
AcDbEntity
  8
0
  6
Continuous
 62
     7
100
AcDbLine
 10
-24.18255012116818
 20
72.19294004327391
 30
0.0
 11
-21.48255012116816
 21
72.19294004327391
 31
0.0
  0
LINE
  5
FA
330
1F
100
AcDbEntity
  8
0
  6
Continuous
 62
     7
100
AcDbLine
 10
-18.83255012116818
 20
66.19294004327391
 30
0.0
 11
-18.83255012116818
 21
75.19294004327391
 31
0.0
  0
LINE
  5
FB
330
1F
100
AcDbEntity
  8
0
  6
Continuous
 62
     7
100
AcDbLine
 10
-22.58255012116818
 20
66.19294004327391
 30
0.0
 11
-22.78255012116817
 21
66.19294004327391
 31
0.0
  0
LINE
  5
FC
330
1F
100
AcDbEntity
  8
0
  6
Continuous
 62
     7
100
AcDbLine
 10
-21.48255012116816
 20
66.19294004327391
 30
0.0
 11
-22.58255012116818
 21
66.19294004327391
 31
0.0
  0
LINE
  5
FD
330
1F
100
AcDbEntity
  8
0
  6
Continuous
 62
     7
100
AcDbLine
 10
-18.58255012116818
 20
66.19294004327391
 30
0.0
 11
-17.98255012116822
 21
66.19294004327391
 31
0.0
  0
LINE
  5
FE
330
1F
100
AcDbEntity
  8
0
  6
Continuous
 62
     7
100
AcDbLine
 10
-17.98255012116822
 20
66.19294004327391
 30
0.0
 11
-17.38255012116788
 21
66.19294004327391
 31
0.0
  0
LINE
  5
FF
330
1F
100
AcDbEntity
  8
0
  6
Continuous
 62
     7
100
AcDbLine
 10
-18.83255012116818
 20
66.19294004327391
 30
0.0
 11
-18.58255012116818
 21
66.19294004327391
 31
0.0
  0
LINE
  5
100
330
1F
100
AcDbEntity
  8
0
  6
Continuous
 62
     7
100
AcDbLine
 10
-15.83255012116818
 20
78.3929400432739
 30
0.0
 11
-15.58255012116818
 21
78.3929400432739
 31
0.0
  0
LINE
  5
101
330
1F
100
AcDbEntity
  8
0
  6
Continuous
 62
     7
100
AcDbLine
 10
-18.58255012116818
 20
78.3929400432739
 30
0.0
 11
-15.83255012116818
 21
78.3929400432739
 31
0.0
  0
LINE
  5
102
330
1F
100
AcDbEntity
  8
0
  6
Continuous
 62
     7
100
AcDbLine
 10
-21.58255012116818
 20
78.3929400432739
 30
0.0
 11
-18.58255012116818
 21
78.3929400432739
 31
0.0
  0
LINE
  5
103
330
1F
100
AcDbEntity
  8
0
  6
Continuous
 62
     7
100
AcDbLine
 10
-33.58255012116817
 20
78.3929400432739
 30
0.0
 11
-24.08255012116818
 21
78.3929400432739
 31
0.0
  0
LINE
  5
104
330
1F
100
AcDbEntity
  8
0
  6
Continuous
 62
     7
100
AcDbLine
 10
-24.08255012116818
 20
86.1929400432739
 30
0.0
 11
-33.58255012116817
 21
86.1929400432739
 31
0.0
  0
LINE
  5
105
330
1F
100
AcDbEntity
  8
0
  6
Continuous
 62
     7
100
AcDbLine
 10
-33.58255012116817
 20
86.1929400432739
 30
0.0
 11
-33.58255012116817
 21
78.3929400432739
 31
0.0
  0
LINE
  5
106
330
1F
100
AcDbEntity
  8
0
  6
Continuous
 62
     7
100
AcDbLine
 10
-33.13255012116818
 20
95.39294004327391
 30
0.0
 11
-30.48255012116817
 21
95.39294004327391
 31
0.0
  0
LINE
  5
107
330
1F
100
AcDbEntity
  8
0
  6
Continuous
 62
     7
100
AcDbLine
 10
-33.13255012116818
 20
95.39294004327391
 30
0.0
 11
-33.13255012116818
 21
86.1929400432739
 31
0.0
  0
LINE
  5
108
330
1F
100
AcDbEntity
  8
0
  6
Continuous
 62
     7
100
AcDbLine
 10
-33.58255012116817
 20
66.19294004327391
 30
0.0
 11
-33.58255012116817
 21
78.3929400432739
 31
0.0
  0
LINE
  5
109
330
1F
100
AcDbEntity
  8
0
  6
Continuous
 62
     7
100
AcDbLine
 10
-35.03255012116819
 20
95.39294004327391
 30
0.0
 11
-35.03255012116819
 21
86.1929400432739
 31
0.0
  0
LINE
  5
10A
330
1F
100
AcDbEntity
  8
0
  6
Continuous
 62
     7
100
AcDbLine
 10
-33.58255012116817
 20
78.3929400432739
 30
0.0
 11
-36.58255012116817
 21
78.3929400432739
 31
0.0
  0
LINE
  5
10B
330
1F
100
AcDbEntity
  8
0
  6
Continuous
 62
     7
100
AcDbLine
 10
-24.08255012116818
 20
86.1929400432739
 30
0.0
 11
-24.08255012116818
 21
78.3929400432739
 31
0.0
  0
LINE
  5
10C
330
1F
100
AcDbEntity
  8
0
  6
Continuous
 62
     7
100
AcDbLine
 10
-21.58255012116818
 20
86.1929400432739
 30
0.0
 11
-24.08255012116818
 21
86.1929400432739
 31
0.0
  0
LINE
  5
10D
330
1F
100
AcDbEntity
  8
0
  6
Continuous
 62
     7
100
AcDbLine
 10
-21.58255012116818
 20
78.3929400432739
 30
0.0
 11
-21.58255012116818
 21
86.1929400432739
 31
0.0
  0
LINE
  5
10E
330
1F
100
AcDbEntity
  8
0
  6
Continuous
 62
     7
100
AcDbLine
 10
-36.58255012116817
 20
86.1929400432739
 30
0.0
 11
-36.58255012116817
 21
78.3929400432739
 31
0.0
  0
LINE
  5
10F
330
1F
100
AcDbEntity
  8
0
  6
Continuous
 62
     7
100
AcDbLine
 10
-17.13255012116819
 20
86.1929400432739
 30
0.0
 11
-17.13255012116819
 21
99.7929400432739
 31
0.0
  0
LINE
  5
110
330
1F
100
AcDbEntity
  8
0
  6
Continuous
 62
     7
100
AcDbLine
 10
-17.38255012116788
 20
66.19294004327391
 30
0.0
 11
-15.83255012116818
 21
66.19294004327391
 31
0.0
  0
LINE
  5
111
330
1F
100
AcDbEntity
  8
0
  6
Continuous
 62
     7
100
AcDbLine
 10
-15.58255012116818
 20
78.3929400432739
 30
0.0
 11
-15.58255012116818
 21
86.1929400432739
 31
0.0
  0
LINE
  5
112
330
1F
100
AcDbEntity
  8
0
  6
Continuous
 62
     7
100
AcDbLine
 10
-15.83255012116818
 20
66.19294004327391
 30
0.0
 11
-15.83255012116818
 21
78.3929400432739
 31
0.0
  0
LINE
  5
113
330
1F
100
AcDbEntity
  8
0
  6
Continuous
 62
     7
100
AcDbLine
 10
-33.58255012116817
 20
86.1929400432739
 30
0.0
 11
-36.58255012116817
 21
86.1929400432739
 31
0.0
  0
LINE
  5
114
330
1F
100
AcDbEntity
  8
0
  6
Continuous
 62
     7
100
AcDbLine
 10
-18.58255012116818
 20
86.1929400432739
 30
0.0
 11
-15.58255012116818
 21
86.1929400432739
 31
0.0
  0
LINE
  5
115
330
1F
100
AcDbEntity
  8
0
  6
Continuous
 62
     7
100
AcDbLine
 10
-18.58255012116818
 20
86.1929400432739
 30
0.0
 11
-21.58255012116818
 21
86.1929400432739
 31
0.0
  0
LINE
  5
116
330
1F
100
AcDbEntity
  8
0
  6
Continuous
 62
     7
100
AcDbLine
 10
-27.08255012116818
 20
66.19294004327391
 30
0.0
 11
-27.08255012116818
 21
75.39294004327391
 31
0.0
  0
LINE
  5
117
330
1F
100
AcDbEntity
  8
0
  6
Continuous
 62
     7
100
AcDbLine
 10
-36.33255012116817
 20
66.19294004327391
 30
0.0
 11
-33.58255012116817
 21
66.19294004327391
 31
0.0
  0
LINE
  5
118
330
1F
100
AcDbEntity
  8
0
  6
Continuous
 62
     7
100
AcDbLine
 10
-33.58255012116817
 20
66.19294004327391
 30
0.0
 11
-27.08255012116818
 21
66.19294004327391
 31
0.0
  0
LINE
  5
119
330
1F
100
AcDbEntity
  8
0
  6
Continuous
 62
     7
100
AcDbLine
 10
-27.08255012116818
 20
66.19294004327391
 30
0.0
 11
-26.83255012116818
 21
66.19294004327391
 31
0.0
  0
LINE
  5
11A
330
1F
100
AcDbEntity
  8
0
  6
Continuous
 62
     7
100
AcDbLine
 10
-36.33255012116817
 20
66.19294004327391
 30
0.0
 11
-36.33255012116817
 21
78.3929400432739
 31
0.0
  0
LINE
  5
11B
330
1F
100
AcDbEntity
  8
0
  6
Continuous
 62
     7
100
AcDbLine
 10
-18.58255012116818
 20
75.39294004327391
 30
0.0
 11
-18.58255012116818
 21
78.3929400432739
 31
0.0
  0
LINE
  5
11C
330
1F
100
AcDbEntity
  8
0
  6
Continuous
 62
     7
100
AcDbLine
 10
-18.58255012116818
 20
78.3929400432739
 30
0.0
 11
-18.58255012116818
 21
86.1929400432739
 31
0.0
  0
LINE
  5
11D
330
1F
100
AcDbEntity
  8
0
  6
Continuous
 62
     7
100
AcDbLine
 10
-19.03255012116817
 20
86.1929400432739
 30
0.0
 11
-19.03255012116817
 21
99.7929400432739
 31
0.0
  0
LINE
  5
11E
330
1F
100
AcDbEntity
  8
0
  6
Continuous
 62
     7
100
AcDbLine
 10
-18.58255012116818
 20
75.39294004327391
 30
0.0
 11
-18.58255012116818
 21
66.19294004327391
 31
0.0
  0
LINE
  5
11F
330
1F
100
AcDbEntity
  8
0
  6
Continuous
 62
     7
100
AcDbLine
 10
-21.58255012116818
 20
78.3929400432739
 30
0.0
 11
-21.58255012116818
 21
75.39294004327391
 31
0.0
  0
LINE
  5
120
330
1F
100
AcDbEntity
  8
0
  6
Continuous
 62
     7
100
AcDbLine
 10
-24.08255012116818
 20
78.3929400432739
 30
0.0
 11
-24.08255012116818
 21
75.39294004327391
 31
0.0
  0
LINE
  5
121
330
1F
100
AcDbEntity
  8
0
  6
Continuous
 62
     7
100
AcDbLine
 10
-18.58255012116818
 20
75.39294004327391
 30
0.0
 11
-21.58255012116818
 21
75.39294004327391
 31
0.0
  0
LINE
  5
122
330
1F
100
AcDbEntity
  8
0
  6
Continuous
 62
     7
100
AcDbLine
 10
-24.18255012116818
 20
66.19294004327391
 30
0.0
 11
-24.08255012116818
 21
66.19294004327391
 31
0.0
  0
LINE
  5
123
330
1F
100
AcDbEntity
  8
0
  6
Continuous
 62
     7
100
AcDbLine
 10
-24.08255012116818
 20
75.39294004327391
 30
0.0
 11
-27.08255012116818
 21
75.39294004327391
 31
0.0
  0
LINE
  5
124
330
1F
100
AcDbEntity
  8
0
  6
Continuous
 62
     7
100
AcDbLine
 10
-24.08255012116818
 20
71.99294004327392
 30
0.0
 11
-21.58255012116818
 21
71.99294004327392
 31
0.0
  0
LINE
  5
125
330
1F
100
AcDbEntity
  8
0
  6
Continuous
 62
     7
100
AcDbLine
 10
-21.58255012116818
 20
66.19294004327391
 30
0.0
 11
-21.58255012116818
 21
71.99294004327392
 31
0.0
  0
LINE
  5
126
330
1F
100
AcDbEntity
  8
0
  6
Continuous
 62
     7
100
AcDbLine
 10
-22.13255012116817
 20
66.19294004327391
 30
0.0
 11
-24.08255012116818
 21
66.19294004327391
 31
0.0
  0
LINE
  5
127
330
1F
100
AcDbEntity
  8
0
  6
Continuous
 62
     7
100
AcDbLine
 10
-21.58255012116818
 20
66.19294004327391
 30
0.0
 11
-22.13255012116817
 21
66.19294004327391
 31
0.0
  0
LINE
  5
128
330
1F
100
AcDbEntity
  8
0
  6
Continuous
 62
     7
100
AcDbLine
 10
-18.58255012116818
 20
66.19294004327391
 30
0.0
 11
-17.38255012116788
 21
66.19294004327391
 31
0.0
  0
LINE
  5
129
330
1F
100
AcDbEntity
  8
0
  6
Continuous
 62
     7
100
AcDbLine
 10
-18.83255012116818
 20
66.19294004327391
 30
0.0
 11
-18.58255012116818
 21
66.19294004327391
 31
0.0
  0
LINE
  5
12A
330
1F
100
AcDbEntity
  8
0
  6
Continuous
 62
     7
100
AcDbLine
 10
-21.58255012116818
 20
66.19294004327391
 30
0.0
 11
-21.48255012116816
 21
66.19294004327391
 31
0.0
  0
LINE
  5
12B
330
1F
100
AcDbEntity
  8
0
  6
Continuous
 62
     7
100
AcDbLine
 10
-24.08255012116818
 20
66.19294004327391
 30
0.0
 11
-24.08255012116818
 21
71.99294004327392
 31
0.0
  0
LINE
  5
12C
330
1F
100
AcDbEntity
  8
0
  6
Continuous
 62
     7
100
AcDbLine
 10
-19.03255012116817
 20
99.9929400432739
 30
0.0
 11
-17.33255012116818
 21
99.9929400432739
 31
0.0
  0
LINE
  5
12D
330
1F
100
AcDbEntity
  8
0
  6
Continuous
 62
     7
100
AcDbLine
 10
-19.03255012116817
 20
99.9929400432739
 30
0.0
 11
-21.28255012116817
 21
99.9929400432739
 31
0.0
  0
LINE
  5
12E
330
1F
100
AcDbEntity
  8
0
  6
Continuous
 62
     7
100
AcDbLine
 10
-19.03255012116817
 20
99.9929400432739
 30
0.0
 11
-19.03255012116817
 21
99.7929400432739
 31
0.0
  0
LINE
  5
12F
330
1F
100
AcDbEntity
  8
0
  6
Continuous
 62
     7
100
AcDbLine
 10
-30.28255012116819
 20
99.9929400432739
 30
0.0
 11
-26.38255012116817
 21
99.9929400432739
 31
0.0
  0
LINE
  5
130
330
1F
100
AcDbEntity
  8
0
  6
Continuous
 62
     7
100
AcDbLine
 10
-32.83255012116817
 20
99.9929400432739
 30
0.0
 11
-30.88255012116817
 21
99.9929400432739
 31
0.0
  0
LINE
  5
131
330
1F
100
AcDbEntity
  8
0
  6
Continuous
 62
     7
100
AcDbLine
 10
-32.83255012116817
 20
99.7929400432739
 30
0.0
 11
-32.83255012116817
 21
99.9929400432739
 31
0.0
  0
LINE
  5
132
330
1F
100
AcDbEntity
  8
0
  6
Continuous
 62
     7
100
AcDbLine
 10
-32.83255012116817
 20
99.9929400432739
 30
0.0
 11
-34.83255012116818
 21
99.9929400432739
 31
0.0
  0
LINE
  5
133
330
1F
100
AcDbEntity
  8
0
  6
Continuous
 62
     7
100
AcDbLine
 10
-25.78255012116817
 20
99.9929400432739
 30
0.0
 11
-21.88255012116817
 21
99.9929400432739
 31
0.0
  0
LINE
  5
134
330
1F
100
AcDbEntity
  8
0
  6
Continuous
 62
     7
100
AcDbLine
 10
-35.03255012116819
 20
95.39294004327391
 30
0.0
 11
-35.03255012116819
 21
99.7929400432739
 31
0.0
  0
LINE
  5
135
330
1F
100
AcDbEntity
  8
0
  6
Continuous
 62
     7
100
AcDbLine
 10
-33.13255012116818
 20
95.39294004327391
 30
0.0
 11
-35.03255012116819
 21
95.39294004327391
 31
0.0
  0
LINE
  5
136
330
1F
100
AcDbEntity
  8
0
  6
Continuous
 62
     7
100
AcDbLine
 10
-30.48255012116817
 20
97.69294004327391
 30
0.0
 11
-30.68255012116818
 21
97.69294004327391
 31
0.0
  0
LINE
  5
137
330
1F
100
AcDbEntity
  8
0
  6
Continuous
 62
     7
100
AcDbLine
 10
-30.68255012116818
 20
97.69294004327391
 30
0.0
 11
-32.83255012116817
 21
97.69294004327391
 31
0.0
  0
LINE
  5
138
330
1F
100
AcDbEntity
  8
0
  6
Continuous
 62
     7
100
AcDbLine
 10
-30.68255012116818
 20
97.69294004327391
 30
0.0
 11
-30.68255012116818
 21
99.7929400432739
 31
0.0
  0
LINE
  5
139
330
1F
100
AcDbEntity
  8
0
  6
Continuous
 62
     7
100
AcDbLine
 10
-32.83255012116817
 20
95.39294004327391
 30
0.0
 11
-32.83255012116817
 21
97.69294004327391
 31
0.0
  0
LINE
  5
13A
330
1F
100
AcDbEntity
  8
0
  6
Continuous
 62
     7
100
AcDbLine
 10
-32.83255012116817
 20
97.69294004327391
 30
0.0
 11
-32.83255012116817
 21
99.7929400432739
 31
0.0
  0
LINE
  5
13B
330
1F
100
AcDbEntity
  8
0
  6
Continuous
 62
     7
100
AcDbLine
 10
-26.18255012116818
 20
97.69294004327391
 30
0.0
 11
-26.18255012116818
 21
99.7929400432739
 31
0.0
  0
LINE
  5
13C
330
1F
100
AcDbEntity
  8
0
  6
Continuous
 62
     7
100
AcDbLine
 10
-30.48255012116817
 20
99.7929400432739
 30
0.0
 11
-30.48255012116817
 21
97.69294004327391
 31
0.0
  0
LINE
  5
13D
330
1F
100
AcDbEntity
  8
0
  6
Continuous
 62
     7
100
AcDbLine
 10
-21.68255012116818
 20
97.69294004327391
 30
0.0
 11
-21.68255012116818
 21
99.7929400432739
 31
0.0
  0
LINE
  5
13E
330
1F
100
AcDbEntity
  8
0
  6
Continuous
 62
     7
100
AcDbLine
 10
-25.98255012116816
 20
97.69294004327391
 30
0.0
 11
-25.98255012116816
 21
99.7929400432739
 31
0.0
  0
LINE
  5
13F
330
1F
100
AcDbEntity
  8
0
  6
Continuous
 62
     7
100
AcDbLine
 10
-26.18255012116818
 20
95.39294004327391
 30
0.0
 11
-26.18255012116818
 21
97.69294004327391
 31
0.0
  0
LINE
  5
140
330
1F
100
AcDbEntity
  8
0
  6
Continuous
 62
     7
100
AcDbLine
 10
-25.98255012116816
 20
97.69294004327391
 30
0.0
 11
-21.48255012116816
 21
97.69294004327391
 31
0.0
  0
LINE
  5
141
330
1F
100
AcDbEntity
  8
0
  6
Continuous
 62
     7
100
AcDbLine
 10
-26.18255012116818
 20
97.69294004327391
 30
0.0
 11
-25.98255012116816
 21
97.69294004327391
 31
0.0
  0
LINE
  5
142
330
1F
100
AcDbEntity
  8
0
  6
Continuous
 62
     7
100
AcDbLine
 10
-26.18255012116818
 20
95.39294004327391
 30
0.0
 11
-21.48255012116816
 21
95.39294004327391
 31
0.0
  0
LINE
  5
143
330
1F
100
AcDbEntity
  8
0
  6
Continuous
 62
     7
100
AcDbLine
 10
-21.48255012116816
 20
99.7929400432739
 30
0.0
 11
-21.48255012116816
 21
95.39294004327391
 31
0.0
  0
LINE
  5
144
330
1F
100
AcDbEntity
  8
0
  6
Continuous
 62
     7
100
AcDbLine
 10
-30.48255012116817
 20
97.69294004327391
 30
0.0
 11
-30.48255012116817
 21
95.39294004327391
 31
0.0
  0
LINE
  5
145
330
1F
100
AcDbEntity
  8
0
  6
Continuous
 62
     7
100
AcDbLine
 10
-64.13427202585284
 20
30.88092364270945
 30
0.0
 11
-64.19741971154545
 21
30.48174235165864
 31
0.0
  0
LINE
  5
146
330
1F
100
AcDbEntity
  8
0
  6
Continuous
 62
     7
100
AcDbLine
 10
-63.93114702585284
 20
30.88092364270945
 30
0.0
 11
-63.86799934016023
 21
30.48174235165864
 31
0.0
  0
LINE
  5
147
330
1F
100
AcDbEntity
  8
0
  6
Continuous
 62
     7
100
AcDbLine
 10
-64.24060925163201
 20
30.20872432760052
 30
0.0
 11
-64.25145952585284
 21
30.14013548821201
 31
0.0
  0
LINE
  5
148
330
1F
100
AcDbEntity
  8
0
  6
Continuous
 62
     7
100
AcDbLine
 10
-63.82480980007367
 20
30.20872432760052
 30
0.0
 11
-63.81395952585284
 21
30.14013548821198
 31
0.0
  0
LINE
  5
149
330
1F
100
AcDbEntity
  8
0
  6
Continuous
 62
     7
100
AcDbLine
 10
-63.86799934016023
 20
30.48174235165864
 30
0.0
 11
-63.82480980007367
 21
30.20872432760052
 31
0.0
  0
LINE
  5
14A
330
1F
100
AcDbEntity
  8
0
  6
Continuous
 62
     7
100
AcDbLine
 10
-64.24060925163201
 20
30.20872432760052
 30
0.0
 11
-64.19741971154545
 21
30.48174235165864
 31
0.0
  0
LINE
  5
14B
330
1F
100
AcDbEntity
  8
0
  6
Continuous
 62
     7
100
AcDbLine
 10
-64.6747259264173
 20
31.62450254327392
 30
0.0
 11
-65.07390721746812
 21
31.68765022896653
 31
0.0
  0
LINE
  5
14C
330
1F
100
AcDbEntity
  8
0
  6
Continuous
 62
     7
100
AcDbLine
 10
-65.34692524152624
 20
31.73083976905308
 30
0.0
 11
-65.07390721746812
 21
31.68765022896653
 31
0.0
  0
LINE
  5
14D
330
1F
100
AcDbEntity
  8
0
  6
Continuous
 62
     7
100
AcDbLine
 10
-65.34692524152624
 20
31.73083976905308
 30
0.0
 11
-65.41551408091463
 21
31.74169004327389
 31
0.0
  0
LINE
  5
14E
330
1F
100
AcDbEntity
  8
0
  6
Continuous
 62
     7
100
AcDbLine
 10
-63.39069312528838
 20
31.62450254327392
 30
0.0
 11
-62.99151183423754
 21
31.68765022896653
 31
0.0
  0
LINE
  5
14F
330
1F
100
AcDbEntity
  8
0
  6
Continuous
 62
     7
100
AcDbLine
 10
-63.39069312528838
 20
31.42137754327392
 30
0.0
 11
-62.99151183423754
 21
31.35822985758129
 31
0.0
  0
LINE
  5
150
330
1F
100
AcDbEntity
  8
0
  6
Continuous
 62
     7
100
AcDbLine
 10
-62.71849381017944
 20
31.31504031749475
 30
0.0
 11
-62.64990497079079
 21
31.30419004327389
 31
0.0
  0
LINE
  5
151
330
1F
100
AcDbEntity
  8
0
  6
Continuous
 62
     7
100
AcDbLine
 10
-62.99151183423754
 20
31.35822985758129
 30
0.0
 11
-62.71849381017944
 21
31.31504031749475
 31
0.0
  0
LINE
  5
152
330
1F
100
AcDbEntity
  8
0
  6
Continuous
 62
     7
100
AcDbLine
 10
-63.82480980007367
 20
32.83715575894732
 30
0.0
 11
-63.81395952585284
 21
32.90574459833584
 31
0.0
  0
LINE
  5
153
330
1F
100
AcDbEntity
  8
0
  6
Continuous
 62
     7
100
AcDbLine
 10
-63.93114702585284
 20
32.16495644383839
 30
0.0
 11
-63.86799934016023
 21
32.56413773488922
 31
0.0
  0
LINE
  5
154
330
1F
100
AcDbEntity
  8
0
  6
Continuous
 62
     7
100
AcDbLine
 10
-64.19741971154545
 20
32.56413773488922
 30
0.0
 11
-64.24060925163201
 21
32.83715575894732
 31
0.0
  0
LINE
  5
155
330
1F
100
AcDbEntity
  8
0
  6
Continuous
 62
     7
100
AcDbLine
 10
-64.24060925163201
 20
32.83715575894732
 30
0.0
 11
-64.25145952585284
 21
32.90574459833582
 31
0.0
  0
LINE
  5
156
330
1F
100
AcDbEntity
  8
0
  6
Continuous
 62
     7
100
AcDbLine
 10
-64.13427202585284
 20
32.16495644383839
 30
0.0
 11
-64.19741971154545
 21
32.56413773488922
 31
0.0
  0
LINE
  5
157
330
1F
100
AcDbEntity
  8
0
  6
Continuous
 62
     7
100
AcDbLine
 10
-63.82480980007367
 20
32.83715575894732
 30
0.0
 11
-63.86799934016023
 21
32.56413773488922
 31
0.0
  0
LINE
  5
158
330
1F
100
AcDbEntity
  8
0
  6
Continuous
 62
     7
100
AcDbLine
 10
-65.34692524152624
 20
31.31504031749475
 30
0.0
 11
-65.41551408091463
 21
31.30419004327393
 31
0.0
  0
LINE
  5
159
330
1F
100
AcDbEntity
  8
0
  6
Continuous
 62
     7
100
AcDbLine
 10
-62.71849381017944
 20
31.73083976905308
 30
0.0
 11
-62.6499049707908
 21
31.74169004327395
 31
0.0
  0
LINE
  5
15A
330
1F
100
AcDbEntity
  8
0
  6
Continuous
 62
     7
100
AcDbLine
 10
-62.99151183423754
 20
31.68765022896653
 30
0.0
 11
-62.71849381017944
 21
31.73083976905308
 31
0.0
  0
LINE
  5
15B
330
1F
100
AcDbEntity
  8
0
  6
Continuous
 62
     7
100
AcDbLine
 10
-65.07390721746812
 20
31.35822985758129
 30
0.0
 11
-65.34692524152624
 21
31.31504031749475
 31
0.0
  0
LINE
  5
15C
330
1F
100
AcDbEntity
  8
0
  6
Continuous
 62
     7
100
AcDbLine
 10
-64.6747259264173
 20
31.42137754327392
 30
0.0
 11
-65.07390721746812
 21
31.35822985758129
 31
0.0
  0
LINE
  5
15D
330
1F
100
AcDbEntity
  8
0
  6
Continuous
 62
     7
100
AcDbLine
 10
-54.68270952585272
 20
35.37294004327391
 30
0.0
 11
-54.68270952585272
 21
32.87294004327391
 31
0.0
  0
LINE
  5
15E
330
1F
100
AcDbEntity
  8
0
  6
Continuous
 62
     7
100
AcDbLine
 10
-73.78270952585271
 20
35.3729400432739
 30
0.0
 11
-73.78270952585271
 21
32.8729400432739
 31
0.0
  0
LINE
  5
15F
330
1F
100
AcDbEntity
  8
0
  6
Continuous
 62
     7
100
AcDbLine
 10
-74.28270952585271
 20
35.37294004327391
 30
0.0
 11
-74.28270952585271
 21
32.8729400432739
 31
0.0
  0
LINE
  5
160
330
1F
100
AcDbEntity
  8
0
  6
Continuous
 62
     7
100
AcDbLine
 10
-73.3827095258527
 20
32.87294004327391
 30
0.0
 11
-73.3827095258527
 21
35.3729400432739
 31
0.0
  0
LINE
  5
161
330
1F
100
AcDbEntity
  8
0
  6
Continuous
 62
     7
100
AcDbLine
 10
-67.78270952585271
 20
34.0729400432739
 30
0.0
 11
-65.83270952585272
 21
34.0729400432739
 31
0.0
  0
LINE
  5
162
330
1F
100
AcDbEntity
  8
0
  6
Continuous
 62
     7
100
AcDbLine
 10
-67.78270952585271
 20
37.0729400432739
 30
0.0
 11
-67.78270952585271
 21
34.0729400432739
 31
0.0
  0
LINE
  5
163
330
1F
100
AcDbEntity
  8
0
  6
Continuous
 62
     7
100
AcDbLine
 10
-62.2327095258527
 20
34.0729400432739
 30
0.0
 11
-60.28270952585271
 21
34.0729400432739
 31
0.0
  0
LINE
  5
164
330
1F
100
AcDbEntity
  8
0
  6
Continuous
 62
     7
100
AcDbLine
 10
-60.28270952585271
 20
34.0729400432739
 30
0.0
 11
-60.28270952585271
 21
37.0729400432739
 31
0.0
  0
LINE
  5
165
330
1F
100
AcDbEntity
  8
0
  6
Continuous
 62
     7
100
AcDbLine
 10
-54.28270952585271
 20
32.8729400432739
 30
0.0
 11
-54.28270952585271
 21
35.3729400432739
 31
0.0
  0
LINE
  5
166
330
1F
100
AcDbEntity
  8
0
  6
Continuous
 62
     7
100
AcDbLine
 10
-53.78270952585271
 20
35.37294004327391
 30
0.0
 11
-53.78270952585271
 21
32.8729400432739
 31
0.0
  0
LINE
  5
167
330
1F
100
AcDbEntity
  8
0
  6
Continuous
 62
     7
100
AcDbLine
 10
-55.08270952585269
 20
41.97294004327391
 30
0.0
 11
-57.2827095258527
 21
41.97294004327391
 31
0.0
  0
LINE
  5
168
330
1F
100
AcDbEntity
  8
0
  6
Continuous
 62
     7
100
AcDbLine
 10
-55.08270952585269
 20
44.42294004327391
 30
0.0
 11
-55.08270952585269
 21
41.97294004327391
 31
0.0
  0
LINE
  5
169
330
1F
100
AcDbEntity
  8
0
  6
Continuous
 62
     7
100
AcDbLine
 10
-55.08270952585269
 20
37.27294004327389
 30
0.0
 11
-55.08270952585269
 21
41.97294004327391
 31
0.0
  0
LINE
  5
16A
330
1F
100
AcDbEntity
  8
0
  6
Continuous
 62
     7
100
AcDbLine
 10
-54.68270952585272
 20
35.37294004327391
 30
0.0
 11
-54.68270952585272
 21
32.87294004327391
 31
0.0
  0
LINE
  5
16B
330
1F
100
AcDbEntity
  8
0
  6
Continuous
 62
     7
100
AcDbLine
 10
-55.08270952585269
 20
37.27294004327389
 30
0.0
 11
-55.08270952585269
 21
32.97294004327391
 31
0.0
  0
LINE
  5
16C
330
1F
100
AcDbEntity
  8
0
  6
Continuous
 62
     7
100
AcDbLine
 10
-61.93270952585272
 20
28.4229400432739
 30
0.0
 11
-66.1327095258527
 21
28.4229400432739
 31
0.0
  0
LINE
  5
16D
330
1F
100
AcDbEntity
  8
0
  6
Continuous
 62
     7
100
AcDbLine
 10
-59.83270952585269
 20
29.6229400432739
 30
0.0
 11
-61.93270952585272
 21
29.6229400432739
 31
0.0
  0
LINE
  5
16E
330
1F
100
AcDbEntity
  8
0
  6
Continuous
 62
     7
100
AcDbLine
 10
-59.93270952585272
 20
28.4229400432739
 30
0.0
 11
-56.9827095258527
 21
28.4229400432739
 31
0.0
  0
LINE
  5
16F
330
1F
100
AcDbEntity
  8
0
  6
Continuous
 62
     7
100
AcDbLine
 10
-59.63270952585268
 20
30.6229400432739
 30
0.0
 11
-59.63270952585268
 21
29.8229400432739
 31
0.0
  0
LINE
  5
170
330
1F
100
AcDbEntity
  8
0
  6
Continuous
 62
     7
100
AcDbLine
 10
-61.93270952585272
 20
29.6229400432739
 30
0.0
 11
-61.93270952585272
 21
28.4229400432739
 31
0.0
  0
LINE
  5
171
330
1F
100
AcDbEntity
  8
0
  6
Continuous
 62
     7
100
AcDbLine
 10
-59.93270952585272
 20
29.6229400432739
 30
0.0
 11
-59.93270952585272
 21
28.4229400432739
 31
0.0
  0
LINE
  5
172
330
1F
100
AcDbEntity
  8
0
  6
Continuous
 62
     7
100
AcDbLine
 10
-71.5327095258527
 20
26.8729400432739
 30
0.0
 11
-56.5327095258527
 21
26.8729400432739
 31
0.0
  0
LINE
  5
173
330
1F
100
AcDbEntity
  8
0
  6
Continuous
 62
     7
100
AcDbLine
 10
-68.63315489195988
 20
30.57918074814798
 30
0.0
 11
-68.63315489195988
 21
28.4229400432739
 31
0.0
  0
LINE
  5
174
330
1F
100
AcDbEntity
  8
0
  6
Continuous
 62
     7
100
AcDbLine
 10
-68.1327095258527
 20
29.6229400432739
 30
0.0
 11
-68.1327095258527
 21
28.4229400432739
 31
0.0
  0
LINE
  5
175
330
1F
100
AcDbEntity
  8
0
  6
Continuous
 62
     7
100
AcDbLine
 10
-66.1327095258527
 20
28.4229400432739
 30
0.0
 11
-66.1327095258527
 21
29.6229400432739
 31
0.0
  0
LINE
  5
176
330
1F
100
AcDbEntity
  8
0
  6
Continuous
 62
     7
100
AcDbLine
 10
-66.1327095258527
 20
29.6229400432739
 30
0.0
 11
-68.1327095258527
 21
29.6229400432739
 31
0.0
  0
LINE
  5
177
330
1F
100
AcDbEntity
  8
0
  6
Continuous
 62
     7
100
AcDbLine
 10
-68.63315489195988
 20
28.4229400432739
 30
0.0
 11
-71.08270952585269
 21
28.4229400432739
 31
0.0
  0
LINE
  5
178
330
1F
100
AcDbEntity
  8
0
  6
Continuous
 62
     7
100
AcDbLine
 10
-68.1327095258527
 20
28.4229400432739
 30
0.0
 11
-68.63315489195988
 21
28.4229400432739
 31
0.0
  0
LINE
  5
179
330
1F
100
AcDbEntity
  8
0
  6
Continuous
 62
     7
100
AcDbLine
 10
-72.9827095258527
 20
32.77294004327389
 30
0.0
 11
-70.7827095258527
 21
32.77294004327389
 31
0.0
  0
LINE
  5
17A
330
1F
100
AcDbEntity
  8
0
  6
Continuous
 62
     7
100
AcDbLine
 10
-74.5327095258527
 20
29.8729400432739
 30
0.0
 11
-74.5327095258527
 21
32.8729400432739
 31
0.0
  0
LINE
  5
17B
330
1F
100
AcDbEntity
  8
0
  6
Continuous
 62
     7
100
AcDbLine
 10
-72.9827095258527
 20
30.3229400432739
 30
0.0
 11
-72.9827095258527
 21
32.77294004327389
 31
0.0
  0
LINE
  5
17C
330
1F
100
AcDbEntity
  8
0
  6
Continuous
 62
     7
100
AcDbLine
 10
-74.28270952585271
 20
35.37294004327391
 30
0.0
 11
-74.28270952585271
 21
32.8729400432739
 31
0.0
  0
LINE
  5
17D
330
1F
100
AcDbEntity
  8
0
  6
Continuous
 62
     7
100
AcDbLine
 10
-74.5327095258527
 20
32.8729400432739
 30
0.0
 11
-74.28270952585271
 21
32.8729400432739
 31
0.0
  0
LINE
  5
17E
330
1F
100
AcDbEntity
  8
0
  6
Continuous
 62
     7
100
AcDbLine
 10
-74.28270952585271
 20
32.8729400432739
 30
0.0
 11
-73.3827095258527
 21
32.87294004327391
 31
0.0
  0
LINE
  5
17F
330
1F
100
AcDbEntity
  8
0
  6
Continuous
 62
     7
100
AcDbLine
 10
-73.3827095258527
 20
32.87294004327391
 30
0.0
 11
-73.3827095258527
 21
35.3729400432739
 31
0.0
  0
LINE
  5
180
330
1F
100
AcDbEntity
  8
0
  6
Continuous
 62
     7
100
AcDbLine
 10
-73.3827095258527
 20
35.3729400432739
 30
0.0
 11
-74.28270952585271
 21
35.37294004327391
 31
0.0
  0
LINE
  5
181
330
1F
100
AcDbEntity
  8
0
  6
Continuous
 62
     7
100
AcDbLine
 10
-74.28270952585271
 20
35.37294004327391
 30
0.0
 11
-74.5327095258527
 21
35.3729400432739
 31
0.0
  0
LINE
  5
182
330
1F
100
AcDbEntity
  8
0
  6
Continuous
 62
     7
100
AcDbLine
 10
-67.78270952585271
 20
34.0729400432739
 30
0.0
 11
-64.78270952585271
 21
34.0729400432739
 31
0.0
  0
LINE
  5
183
330
1F
100
AcDbEntity
  8
0
  6
Continuous
 62
     7
100
AcDbLine
 10
-68.43270952585272
 20
46.3229400432739
 30
0.0
 11
-71.08270952585269
 21
46.3229400432739
 31
0.0
  0
LINE
  5
184
330
1F
100
AcDbEntity
  8
0
  6
Continuous
 62
     7
100
AcDbLine
 10
-64.13270952585268
 20
46.3229400432739
 30
0.0
 11
-59.43270952585272
 21
46.3229400432739
 31
0.0
  0
LINE
  5
185
330
1F
100
AcDbEntity
  8
0
  6
Continuous
 62
     7
100
AcDbLine
 10
-70.7827095258526
 20
37.47294004327391
 30
0.0
 11
-72.9827095258527
 21
37.47294004327391
 31
0.0
  0
LINE
  5
186
330
1F
100
AcDbEntity
  8
0
  6
Continuous
 62
     7
100
AcDbLine
 10
-60.28270952585271
 20
37.0729400432739
 30
0.0
 11
-63.28270952585271
 21
37.0729400432739
 31
0.0
  0
LINE
  5
187
330
1F
100
AcDbEntity
  8
0
  6
Continuous
 62
     7
100
AcDbLine
 10
-64.78270952585271
 20
37.0729400432739
 30
0.0
 11
-67.78270952585271
 21
37.0729400432739
 31
0.0
  0
LINE
  5
188
330
1F
100
AcDbEntity
  8
0
  6
Continuous
 62
     7
100
AcDbLine
 10
-72.9827095258527
 20
41.77294004327389
 30
0.0
 11
-70.7827095258527
 21
41.77294004327389
 31
0.0
  0
LINE
  5
189
330
1F
100
AcDbEntity
  8
0
  6
Continuous
 62
     7
100
AcDbLine
 10
-72.9827095258527
 20
44.42294004327391
 30
0.0
 11
-72.9827095258527
 21
41.77294004327389
 31
0.0
  0
LINE
  5
18A
330
1F
100
AcDbEntity
  8
0
  6
Continuous
 62
     7
100
AcDbLine
 10
-74.5327095258527
 20
35.3729400432739
 30
0.0
 11
-74.5327095258527
 21
44.8729400432739
 31
0.0
  0
LINE
  5
18B
330
1F
100
AcDbEntity
  8
0
  6
Continuous
 62
     7
100
AcDbLine
 10
-72.9827095258527
 20
37.47294004327391
 30
0.0
 11
-72.9827095258527
 21
41.77294004327389
 31
0.0
  0
LINE
  5
18C
330
1F
100
AcDbEntity
  8
0
  6
Continuous
 62
     7
100
AcDbLine
 10
-68.43270952585272
 20
46.3229400432739
 30
0.0
 11
-64.13270952585268
 21
46.3229400432739
 31
0.0
  0
LINE
  5
18D
330
1F
100
AcDbEntity
  8
0
  6
Continuous
 62
     7
100
AcDbLine
 10
-59.43270952585272
 20
46.3229400432739
 30
0.0
 11
-56.9827095258527
 21
46.3229400432739
 31
0.0
  0
LINE
  5
18E
330
1F
100
AcDbEntity
  8
0
  6
Continuous
 62
     7
100
AcDbLine
 10
-56.5327095258527
 20
47.8729400432739
 30
0.0
 11
-71.5327095258527
 21
47.8729400432739
 31
0.0
  0
LINE
  5
18F
330
1F
100
AcDbEntity
  8
0
  6
Continuous
 62
     7
100
AcDbLine
 10
-68.43270952585272
 20
44.1229400432739
 30
0.0
 11
-68.43270952585272
 21
46.3229400432739
 31
0.0
  0
LINE
  5
190
330
1F
100
AcDbEntity
  8
0
  6
Continuous
 62
     7
100
AcDbLine
 10
-59.43270952585272
 20
44.1229400432739
 30
0.0
 11
-59.43270952585272
 21
46.3229400432739
 31
0.0
  0
LINE
  5
191
330
1F
100
AcDbEntity
  8
0
  6
Continuous
 62
     7
100
AcDbLine
 10
-64.13270952585268
 20
46.3229400432739
 30
0.0
 11
-64.13270952585268
 21
44.1229400432739
 31
0.0
  0
LINE
  5
192
330
1F
100
AcDbEntity
  8
0
  6
Continuous
 62
     7
100
AcDbLine
 10
-53.5327095258527
 20
32.8729400432739
 30
0.0
 11
-53.5327095258527
 21
29.8729400432739
 31
0.0
  0
LINE
  5
193
330
1F
100
AcDbEntity
  8
0
  6
Continuous
 62
     7
100
AcDbLine
 10
-53.5327095258527
 20
44.8729400432739
 30
0.0
 11
-53.5327095258527
 21
35.37294004327391
 31
0.0
  0
LINE
  5
194
330
1F
100
AcDbEntity
  8
0
  6
Continuous
 62
     7
100
AcDbLine
 10
-72.9827095258527
 20
37.47294004327391
 30
0.0
 11
-72.9827095258527
 21
32.77294004327389
 31
0.0
  0
LINE
  5
195
330
1F
100
AcDbEntity
  8
0
  6
Continuous
 62
     7
100
AcDbLine
 10
-67.78270952585271
 20
37.0729400432739
 30
0.0
 11
-67.78270952585271
 21
34.0729400432739
 31
0.0
  0
LINE
  5
196
330
1F
100
AcDbEntity
  8
0
  6
Continuous
 62
     7
100
AcDbLine
 10
-64.78270952585271
 20
34.0729400432739
 30
0.0
 11
-64.78270952585271
 21
37.0729400432739
 31
0.0
  0
LINE
  5
197
330
1F
100
AcDbEntity
  8
0
  6
Continuous
 62
     7
100
AcDbLine
 10
-63.28270952585271
 20
34.0729400432739
 30
0.0
 11
-60.28270952585271
 21
34.0729400432739
 31
0.0
  0
LINE
  5
198
330
1F
100
AcDbEntity
  8
0
  6
Continuous
 62
     7
100
AcDbLine
 10
-63.28270952585271
 20
37.0729400432739
 30
0.0
 11
-63.28270952585271
 21
34.0729400432739
 31
0.0
  0
LINE
  5
199
330
1F
100
AcDbEntity
  8
0
  6
Continuous
 62
     7
100
AcDbLine
 10
-57.2827095258527
 20
37.27294004327389
 30
0.0
 11
-55.08270952585269
 21
37.27294004327389
 31
0.0
  0
LINE
  5
19A
330
1F
100
AcDbEntity
  8
0
  6
Continuous
 62
     7
100
AcDbLine
 10
-55.08270952585269
 20
32.97294004327391
 30
0.0
 11
-57.2827095258527
 21
32.97294004327391
 31
0.0
  0
LINE
  5
19B
330
1F
100
AcDbEntity
  8
0
  6
Continuous
 62
     7
100
AcDbLine
 10
-60.28270952585271
 20
34.0729400432739
 30
0.0
 11
-60.28270952585271
 21
37.0729400432739
 31
0.0
  0
LINE
  5
19C
330
1F
100
AcDbEntity
  8
0
  6
Continuous
 62
     7
100
AcDbLine
 10
-55.08270952585269
 20
30.3229400432739
 30
0.0
 11
-55.08270952585269
 21
32.97294004327391
 31
0.0
  0
LINE
  5
19D
330
1F
100
AcDbEntity
  8
0
  6
Continuous
 62
     7
100
AcDbLine
 10
-53.78270952585271
 20
35.37294004327391
 30
0.0
 11
-54.68270952585272
 21
35.37294004327391
 31
0.0
  0
LINE
  5
19E
330
1F
100
AcDbEntity
  8
0
  6
Continuous
 62
     7
100
AcDbLine
 10
-53.5327095258527
 20
35.37294004327391
 30
0.0
 11
-53.78270952585271
 21
35.37294004327391
 31
0.0
  0
LINE
  5
19F
330
1F
100
AcDbEntity
  8
0
  6
Continuous
 62
     7
100
AcDbLine
 10
-53.78270952585271
 20
32.8729400432739
 30
0.0
 11
-53.5327095258527
 21
32.8729400432739
 31
0.0
  0
LINE
  5
1A0
330
1F
100
AcDbEntity
  8
0
  6
Continuous
 62
     7
100
AcDbLine
 10
-54.68270952585272
 20
32.87294004327391
 30
0.0
 11
-53.78270952585271
 21
32.8729400432739
 31
0.0
  0
LINE
  5
1A1
330
1F
100
AcDbEntity
  8
0
  6
Continuous
 62
     7
100
AcDbLine
 10
-53.78270952585271
 20
35.37294004327391
 30
0.0
 11
-53.78270952585271
 21
32.8729400432739
 31
0.0
  0
LINE
  5
1A2
330
1F
100
AcDbEntity
  8
0
  6
Continuous
 62
     7
100
AcDbLine
 10
-65.88270952585272
 20
137.2729400432739
 30
0.0
 11
-62.18270952585272
 21
137.2729400432739
 31
0.0
  0
LINE
  5
1A3
330
1F
100
AcDbEntity
  8
0
  6
Continuous
 62
     7
100
AcDbLine
 10
-64.78270952585271
 20
131.8729400432739
 30
0.0
 11
-65.83270952585272
 21
131.8729400432739
 31
0.0
  0
LINE
  5
1A4
330
1F
100
AcDbEntity
  8
0
  6
Continuous
 62
     7
100
AcDbLine
 10
-65.83270952585272
 20
131.8729400432739
 30
0.0
 11
-67.78270952585271
 21
131.8729400432739
 31
0.0
  0
LINE
  5
1A5
330
1F
100
AcDbEntity
  8
0
  6
Continuous
 62
     7
100
AcDbLine
 10
-67.78270952585271
 20
131.8729400432739
 30
0.0
 11
-67.78270952585271
 21
128.8729400432739
 31
0.0
  0
LINE
  5
1A6
330
1F
100
AcDbEntity
  8
0
  6
Continuous
 62
     7
100
AcDbLine
 10
-67.78270952585271
 20
128.8729400432739
 30
0.0
 11
-64.78270952585271
 21
128.8729400432739
 31
0.0
  0
LINE
  5
1A7
330
1F
100
AcDbEntity
  8
0
  6
Continuous
 62
     7
100
AcDbLine
 10
-64.78270952585271
 20
128.8729400432739
 30
0.0
 11
-64.78270952585271
 21
131.8729400432739
 31
0.0
  0
LINE
  5
1A8
330
1F
100
AcDbEntity
  8
0
  6
Continuous
 62
     7
100
AcDbLine
 10
-74.28270952585271
 20
121.0729400432739
 30
0.0
 11
-74.28270952585271
 21
127.5729400432739
 31
0.0
  0
LINE
  5
1A9
330
1F
100
AcDbEntity
  8
0
  6
Continuous
 62
     7
100
AcDbLine
 10
-74.5327095258527
 20
133.0729400432739
 30
0.0
 11
-74.5327095258527
 21
136.0729400432739
 31
0.0
  0
LINE
  5
1AA
330
1F
100
AcDbEntity
  8
0
  6
Continuous
 62
     7
100
AcDbLine
 10
-74.28270952585271
 20
130.5729400432739
 30
0.0
 11
-74.28270952585271
 21
133.0729400432739
 31
0.0
  0
LINE
  5
1AB
330
1F
100
AcDbEntity
  8
0
  6
Continuous
 62
     7
100
AcDbLine
 10
-73.38270952585268
 20
133.0729400432739
 30
0.0
 11
-74.28270952585271
 21
133.0729400432739
 31
0.0
  0
LINE
  5
1AC
330
1F
100
AcDbEntity
  8
0
  6
Continuous
 62
     7
100
AcDbLine
 10
-74.28270952585271
 20
133.0729400432739
 30
0.0
 11
-74.5327095258527
 21
133.0729400432739
 31
0.0
  0
LINE
  5
1AD
330
1F
100
AcDbEntity
  8
0
  6
Continuous
 62
     7
100
AcDbLine
 10
-73.38270952585268
 20
133.0729400432739
 30
0.0
 11
-73.3827095258527
 21
130.5729400432739
 31
0.0
  0
LINE
  5
1AE
330
1F
100
AcDbEntity
  8
0
  6
Continuous
 62
     7
100
AcDbLine
 10
-59.23270952585267
 20
139.0729400432739
 30
0.0
 11
-56.5327095258527
 21
139.0729400432739
 31
0.0
  0
LINE
  5
1AF
330
1F
100
AcDbEntity
  8
0
  6
Continuous
 62
     7
100
AcDbLine
 10
-59.48270952585271
 20
138.8229400432739
 30
0.0
 11
-56.53270952585271
 21
138.8229400432739
 31
0.0
  0
LINE
  5
1B0
330
1F
100
AcDbEntity
  8
0
  6
Continuous
 62
     7
100
AcDbLine
 10
-59.23270952585267
 20
139.0729400432739
 30
0.0
 11
-61.83270952585302
 21
139.0729400432739
 31
0.0
  0
LINE
  5
1B1
330
1F
100
AcDbEntity
  8
0
  6
Continuous
 62
     7
100
AcDbLine
 10
-68.5827095258527
 20
138.8229400432739
 30
0.0
 11
-68.83270952585272
 21
139.0729400432739
 31
0.0
  0
LINE
  5
1B2
330
1F
100
AcDbEntity
  8
0
  6
Continuous
 62
     7
100
AcDbLine
 10
-71.5327095258527
 20
139.0729400432739
 30
0.0
 11
-68.83270952585272
 21
139.0729400432739
 31
0.0
  0
LINE
  5
1B3
330
1F
100
AcDbEntity
  8
0
  6
Continuous
 62
     7
100
AcDbLine
 10
-62.18270952585272
 20
137.2729400432739
 30
0.0
 11
-62.1327095258527
 21
137.2729400432742
 31
0.0
  0
LINE
  5
1B4
330
1F
100
AcDbEntity
  8
0
  6
Continuous
 62
     7
100
AcDbLine
 10
-65.93270952585272
 20
137.2729400432742
 30
0.0
 11
-65.88270952585272
 21
137.2729400432739
 31
0.0
  0
LINE
  5
1B5
330
1F
100
AcDbEntity
  8
0
  6
Continuous
 62
     7
100
AcDbLine
 10
-65.88270952585272
 20
137.2729400432739
 30
0.0
 11
-62.18270952585272
 21
137.2729400432739
 31
0.0
  0
LINE
  5
1B6
330
1F
100
AcDbEntity
  8
0
  6
Continuous
 62
     7
100
AcDbLine
 10
-67.03270952585275
 20
137.2729400432742
 30
0.0
 11
-65.93270952585272
 21
137.2729400432742
 31
0.0
  0
LINE
  5
1B7
330
1F
100
AcDbEntity
  8
0
  6
Continuous
 62
     7
100
AcDbLine
 10
-71.53270952585271
 20
138.8229400432739
 30
0.0
 11
-68.5827095258527
 21
138.8229400432739
 31
0.0
  0
LINE
  5
1B8
330
1F
100
AcDbEntity
  8
0
  6
Continuous
 62
     7
100
AcDbLine
 10
-59.23270952585267
 20
139.0729400432739
 30
0.0
 11
-59.48270952585271
 21
138.8229400432739
 31
0.0
  0
LINE
  5
1B9
330
1F
100
AcDbEntity
  8
0
  6
Continuous
 62
     7
100
AcDbLine
 10
-62.1327095258527
 20
137.2729400432742
 30
0.0
 11
-61.03270952585264
 21
137.2729400432742
 31
0.0
  0
LINE
  5
1BA
330
1F
100
AcDbEntity
  8
0
  6
Continuous
 62
     7
100
AcDbLine
 10
-62.2327095258527
 20
131.8729400432739
 30
0.0
 11
-63.28270952585272
 21
131.8729400432739
 31
0.0
  0
LINE
  5
1BB
330
1F
100
AcDbEntity
  8
0
  6
Continuous
 62
     7
100
AcDbLine
 10
-60.28270952585272
 20
131.8729400432739
 30
0.0
 11
-62.2327095258527
 21
131.8729400432739
 31
0.0
  0
LINE
  5
1BC
330
1F
100
AcDbEntity
  8
0
  6
Continuous
 62
     7
100
AcDbLine
 10
-63.28270952585272
 20
128.8729400432739
 30
0.0
 11
-60.28270952585272
 21
128.8729400432739
 31
0.0
  0
LINE
  5
1BD
330
1F
100
AcDbEntity
  8
0
  6
Continuous
 62
     7
100
AcDbLine
 10
-63.28270952585272
 20
131.8729400432739
 30
0.0
 11
-63.28270952585272
 21
128.8729400432739
 31
0.0
  0
LINE
  5
1BE
330
1F
100
AcDbEntity
  8
0
  6
Continuous
 62
     7
100
AcDbLine
 10
-60.28270952585272
 20
128.8729400432739
 30
0.0
 11
-60.28270952585272
 21
131.8729400432739
 31
0.0
  0
LINE
  5
1BF
330
1F
100
AcDbEntity
  8
0
  6
Continuous
 62
     7
100
AcDbLine
 10
-53.5327095258527
 20
130.5729400432739
 30
0.0
 11
-53.5327095258527
 21
121.0729400432739
 31
0.0
  0
LINE
  5
1C0
330
1F
100
AcDbEntity
  8
0
  6
Continuous
 62
     7
100
AcDbLine
 10
-53.78270952585271
 20
130.5729400432739
 30
0.0
 11
-53.5327095258527
 21
130.5729400432739
 31
0.0
  0
LINE
  5
1C1
330
1F
100
AcDbEntity
  8
0
  6
Continuous
 62
     7
100
AcDbLine
 10
-53.5327095258527
 20
136.0729400432739
 30
0.0
 11
-53.5327095258527
 21
133.0729400432739
 31
0.0
  0
LINE
  5
1C2
330
1F
100
AcDbEntity
  8
0
  6
Continuous
 62
     7
100
AcDbLine
 10
-53.5327095258527
 20
133.0729400432739
 30
0.0
 11
-53.78270952585271
 21
133.0729400432739
 31
0.0
  0
LINE
  5
1C3
330
1F
100
AcDbEntity
  8
0
  6
Continuous
 62
     7
100
AcDbLine
 10
-53.78270952585271
 20
136.0729400432739
 30
0.0
 11
-53.78270952585271
 21
133.0729400432739
 31
0.0
  0
LINE
  5
1C4
330
1F
100
AcDbEntity
  8
0
  6
Continuous
 62
     7
100
AcDbLine
 10
-54.68270952585272
 20
130.5729400432739
 30
0.0
 11
-54.6827095258527
 21
133.0729400432739
 31
0.0
  0
LINE
  5
1C5
330
1F
100
AcDbEntity
  8
0
  6
Continuous
 62
     7
100
AcDbLine
 10
-53.78270952585271
 20
130.5729400432739
 30
0.0
 11
-53.78270952585271
 21
133.0729400432739
 31
0.0
  0
LINE
  5
1C6
330
1F
100
AcDbEntity
  8
0
  6
Continuous
 62
     7
100
AcDbLine
 10
-53.78270952585271
 20
133.0729400432739
 30
0.0
 11
-54.6827095258527
 21
133.0729400432739
 31
0.0
  0
LINE
  5
1C7
330
1F
100
AcDbEntity
  8
0
  6
Continuous
 62
     7
100
AcDbLine
 10
-53.78270952585271
 20
130.5729400432739
 30
0.0
 11
-54.68270952585272
 21
130.5729400432739
 31
0.0
  0
LINE
  5
1C8
330
1F
100
AcDbEntity
  8
0
  6
Continuous
 62
     7
100
AcDbLine
 10
-53.78270952585271
 20
130.5729400432739
 30
0.0
 11
-53.78270952585271
 21
127.8229400432739
 31
0.0
  0
LINE
  5
1C9
330
1F
100
AcDbEntity
  8
0
  6
Continuous
 62
     7
100
AcDbLine
 10
-53.78270952585271
 20
127.5729400432739
 30
0.0
 11
-53.78270952585271
 21
121.0729400432739
 31
0.0
  0
LINE
  5
1CA
330
1F
100
AcDbEntity
  8
0
  6
Continuous
 62
     7
100
AcDbLine
 10
-53.78270952585271
 20
127.8229400432739
 30
0.0
 11
-53.78270952585271
 21
127.5729400432739
 31
0.0
  0
LINE
  5
1CB
330
1F
100
AcDbEntity
  8
0
  6
Continuous
 62
     7
100
AcDbLine
 10
-56.5327095258527
 20
118.0729400432739
 30
0.0
 11
-71.5327095258527
 21
118.0729400432739
 31
0.0
  0
LINE
  5
1CC
330
1F
100
AcDbEntity
  8
0
  6
Continuous
 62
     7
100
AcDbLine
 10
-56.53270952585271
 20
118.3229400432739
 30
0.0
 11
-71.53270952585271
 21
118.3229400432739
 31
0.0
  0
LINE
  5
1CD
330
1F
100
AcDbEntity
  8
0
  6
Continuous
 62
     7
100
AcDbLine
 10
-74.5327095258527
 20
121.0729400432739
 30
0.0
 11
-74.5327095258527
 21
130.5729400432739
 31
0.0
  0
LINE
  5
1CE
330
1F
100
AcDbEntity
  8
0
  6
Continuous
 62
     7
100
AcDbLine
 10
-74.28270952585271
 20
130.5729400432739
 30
0.0
 11
-74.28270952585271
 21
127.8229400432739
 31
0.0
  0
LINE
  5
1CF
330
1F
100
AcDbEntity
  8
0
  6
Continuous
 62
     7
100
AcDbLine
 10
-74.28270952585271
 20
127.8229400432739
 30
0.0
 11
-74.28270952585271
 21
127.5729400432739
 31
0.0
  0
LINE
  5
1D0
330
1F
100
AcDbEntity
  8
0
  6
Continuous
 62
     7
100
AcDbLine
 10
-73.3827095258527
 20
130.5729400432739
 30
0.0
 11
-74.28270952585271
 21
130.5729400432739
 31
0.0
  0
LINE
  5
1D1
330
1F
100
AcDbEntity
  8
0
  6
Continuous
 62
     7
100
AcDbLine
 10
-74.5327095258527
 20
130.5729400432739
 30
0.0
 11
-74.28270952585271
 21
130.5729400432739
 31
0.0
  0
LINE
  5
1D2
330
1F
100
AcDbEntity
  8
0
  6
Continuous
 62
     7
100
AcDbLine
 10
-65.63270952585272
 20
132.5020027720441
 30
0.0
 11
-65.63270952585272
 21
132.0729400432739
 31
0.0
  0
LINE
  5
1D3
330
1F
100
AcDbEntity
  8
0
  6
Continuous
 62
     7
100
AcDbLine
 10
-62.43270952585272
 20
132.0729400432739
 30
0.0
 11
-62.43270952585272
 21
132.5020027720441
 31
0.0
  0
LINE
  5
1D4
330
1F
100
AcDbEntity
  8
0
  6
Continuous
 62
     7
100
AcDbLine
 10
-67.78270952585271
 20
134.4229400432739
 30
0.0
 11
-67.78270952585271
 21
131.8729400432739
 31
0.0
  0
LINE
  5
1D5
330
1F
100
AcDbEntity
  8
0
  6
Continuous
 62
     7
100
AcDbLine
 10
-67.78270952585271
 20
131.8729400432739
 30
0.0
 11
-67.78270952585272
 21
128.7729400432739
 31
0.0
  0
LINE
  5
1D6
330
1F
100
AcDbEntity
  8
0
  6
Continuous
 62
     7
100
AcDbLine
 10
-65.83270952585272
 20
131.8729400432739
 30
0.0
 11
-67.78270952585271
 21
131.8729400432739
 31
0.0
  0
LINE
  5
1D7
330
1F
100
AcDbEntity
  8
0
  6
Continuous
 62
     7
100
AcDbLine
 10
-68.28270952585272
 20
128.2729400432739
 30
0.0
 11
-70.78270952585274
 21
128.2729400432739
 31
0.0
  0
LINE
  5
1D8
330
1F
100
AcDbEntity
  8
0
  6
Continuous
 62
     7
100
AcDbLine
 10
-74.28270952585271
 20
133.1729400432739
 30
0.0
 11
-74.28270952585271
 21
133.0729400432739
 31
0.0
  0
LINE
  5
1D9
330
1F
100
AcDbEntity
  8
0
  6
Continuous
 62
     7
100
AcDbLine
 10
-74.28270952585271
 20
136.0729400432739
 30
0.0
 11
-74.28270952585271
 21
133.1729400432739
 31
0.0
  0
LINE
  5
1DA
330
1F
100
AcDbEntity
  8
0
  6
Continuous
 62
     7
100
AcDbLine
 10
-74.28270952585271
 20
130.5729400432739
 30
0.0
 11
-74.28270952585271
 21
133.0729400432739
 31
0.0
  0
LINE
  5
1DB
330
1F
100
AcDbEntity
  8
0
  6
Continuous
 62
     7
100
AcDbLine
 10
-59.48270952585271
 20
138.8229400432739
 30
0.0
 11
-56.53270952585271
 21
138.8229400432739
 31
0.0
  0
LINE
  5
1DC
330
1F
100
AcDbEntity
  8
0
  6
Continuous
 62
     7
100
AcDbLine
 10
-62.18270952585272
 20
137.2729400432739
 30
0.0
 11
-62.1327095258527
 21
137.2729400432742
 31
0.0
  0
LINE
  5
1DD
330
1F
100
AcDbEntity
  8
0
  6
Continuous
 62
     7
100
AcDbLine
 10
-65.93270952585272
 20
137.2729400432742
 30
0.0
 11
-65.88270952585272
 21
137.2729400432739
 31
0.0
  0
LINE
  5
1DE
330
1F
100
AcDbEntity
  8
0
  6
Continuous
 62
     7
100
AcDbLine
 10
-65.88270952585272
 20
137.2729400432739
 30
0.0
 11
-62.18270952585272
 21
137.2729400432739
 31
0.0
  0
LINE
  5
1DF
330
1F
100
AcDbEntity
  8
0
  6
Continuous
 62
     7
100
AcDbLine
 10
-67.0327095258527
 20
136.6729400432739
 30
0.0
 11
-67.03270952585275
 21
137.2729400432742
 31
0.0
  0
LINE
  5
1E0
330
1F
100
AcDbEntity
  8
0
  6
Continuous
 62
     7
100
AcDbLine
 10
-68.5827095258527
 20
138.8229400432739
 30
0.0
 11
-68.38270952585273
 21
138.6229400432739
 31
0.0
  0
LINE
  5
1E1
330
1F
100
AcDbEntity
  8
0
  6
Continuous
 62
     7
100
AcDbLine
 10
-68.38270952585273
 20
138.6229400432739
 30
0.0
 11
-67.03270952585275
 21
137.2729400432742
 31
0.0
  0
LINE
  5
1E2
330
1F
100
AcDbEntity
  8
0
  6
Continuous
 62
     7
100
AcDbLine
 10
-67.03270952585275
 20
137.2729400432742
 30
0.0
 11
-65.93270952585272
 21
137.2729400432742
 31
0.0
  0
LINE
  5
1E3
330
1F
100
AcDbEntity
  8
0
  6
Continuous
 62
     7
100
AcDbLine
 10
-71.53270952585271
 20
138.8229400432739
 30
0.0
 11
-68.5827095258527
 21
138.8229400432739
 31
0.0
  0
LINE
  5
1E4
330
1F
100
AcDbEntity
  8
0
  6
Continuous
 62
     7
100
AcDbLine
 10
-61.03270952585264
 20
137.2729400432742
 30
0.0
 11
-61.0327095258527
 21
136.6729400432739
 31
0.0
  0
LINE
  5
1E5
330
1F
100
AcDbEntity
  8
0
  6
Continuous
 62
     7
100
AcDbLine
 10
-60.28270952585272
 20
131.8729400432739
 30
0.0
 11
-60.28270952585271
 21
134.4229400432739
 31
0.0
  0
LINE
  5
1E6
330
1F
100
AcDbEntity
  8
0
  6
Continuous
 62
     7
100
AcDbLine
 10
-59.68270952585263
 20
138.6229400432739
 30
0.0
 11
-59.48270952585271
 21
138.8229400432739
 31
0.0
  0
LINE
  5
1E7
330
1F
100
AcDbEntity
  8
0
  6
Continuous
 62
     7
100
AcDbLine
 10
-61.03270952585264
 20
137.2729400432742
 30
0.0
 11
-59.68270952585263
 21
138.6229400432739
 31
0.0
  0
LINE
  5
1E8
330
1F
100
AcDbEntity
  8
0
  6
Continuous
 62
     7
100
AcDbLine
 10
-62.1327095258527
 20
137.2729400432742
 30
0.0
 11
-61.03270952585264
 21
137.2729400432742
 31
0.0
  0
LINE
  5
1E9
330
1F
100
AcDbEntity
  8
0
  6
Continuous
 62
     7
100
AcDbLine
 10
-60.28270952585271
 20
128.7729400432739
 30
0.0
 11
-60.28270952585272
 21
131.8729400432739
 31
0.0
  0
LINE
  5
1EA
330
1F
100
AcDbEntity
  8
0
  6
Continuous
 62
     7
100
AcDbLine
 10
-60.28270952585272
 20
131.8729400432739
 30
0.0
 11
-62.2327095258527
 21
131.8729400432739
 31
0.0
  0
LINE
  5
1EB
330
1F
100
AcDbEntity
  8
0
  6
Continuous
 62
     7
100
AcDbLine
 10
-53.78270952585271
 20
127.8229400432739
 30
0.0
 11
-56.03671594641499
 21
127.8229400432739
 31
0.0
  0
LINE
  5
1EC
330
1F
100
AcDbEntity
  8
0
  6
Continuous
 62
     7
100
AcDbLine
 10
-53.78270952585271
 20
133.1729400432739
 30
0.0
 11
-53.78270952585271
 21
133.0729400432739
 31
0.0
  0
LINE
  5
1ED
330
1F
100
AcDbEntity
  8
0
  6
Continuous
 62
     7
100
AcDbLine
 10
-53.78270952585271
 20
136.0729400432739
 30
0.0
 11
-53.78270952585271
 21
133.1729400432739
 31
0.0
  0
LINE
  5
1EE
330
1F
100
AcDbEntity
  8
0
  6
Continuous
 62
     7
100
AcDbLine
 10
-53.78270952585271
 20
130.5729400432739
 30
0.0
 11
-53.78270952585271
 21
133.0729400432739
 31
0.0
  0
LINE
  5
1EF
330
1F
100
AcDbEntity
  8
0
  6
Continuous
 62
     7
100
AcDbLine
 10
-53.78270952585271
 20
130.5729400432739
 30
0.0
 11
-53.78270952585271
 21
130.4729400432739
 31
0.0
  0
LINE
  5
1F0
330
1F
100
AcDbEntity
  8
0
  6
Continuous
 62
     7
100
AcDbLine
 10
-53.78270952585271
 20
130.4729400432739
 30
0.0
 11
-53.78270952585271
 21
127.8229400432739
 31
0.0
  0
LINE
  5
1F1
330
1F
100
AcDbEntity
  8
0
  6
Continuous
 62
     7
100
AcDbLine
 10
-57.2827095258527
 20
128.2729400432739
 30
0.0
 11
-59.78270952585271
 21
128.2729400432739
 31
0.0
  0
LINE
  5
1F2
330
1F
100
AcDbEntity
  8
0
  6
Continuous
 62
     7
100
AcDbLine
 10
-74.28270952585271
 20
130.5729400432739
 30
0.0
 11
-74.28270952585271
 21
130.4729400432739
 31
0.0
  0
LINE
  5
1F3
330
1F
100
AcDbEntity
  8
0
  6
Continuous
 62
     7
100
AcDbLine
 10
-72.02870310529045
 20
127.8229400432739
 30
0.0
 11
-74.28270952585271
 21
127.8229400432739
 31
0.0
  0
LINE
  5
1F4
330
1F
100
AcDbEntity
  8
0
  6
Continuous
 62
     7
100
AcDbLine
 10
-74.28270952585271
 20
130.4729400432739
 30
0.0
 11
-74.28270952585271
 21
127.8229400432739
 31
0.0
  0
LINE
  5
1F5
330
1F
100
AcDbEntity
  8
0
  6
Continuous
 62
     7
100
AcDbLine
 10
-65.88270952585272
 20
83.19294004327391
 30
0.0
 11
-65.17835344959168
 21
83.19294004327391
 31
0.0
  0
LINE
  5
1F6
330
1F
100
AcDbEntity
  8
0
  6
Continuous
 62
     7
100
AcDbLine
 10
-62.88706560211373
 20
83.19294004327391
 30
0.0
 11
-62.18270952585272
 21
83.19294004327391
 31
0.0
  0
LINE
  5
1F7
330
1F
100
AcDbEntity
  8
0
  6
Continuous
 62
     7
100
AcDbLine
 10
-61.03270952585264
 20
66.19294004327391
 30
0.0
 11
-59.48270952585271
 21
66.19294004327391
 31
0.0
  0
LINE
  5
1F8
330
1F
100
AcDbEntity
  8
0
  6
Continuous
 62
     7
100
AcDbLine
 10
-62.03270952585271
 20
66.19294004327391
 30
0.0
 11
-61.03270952585264
 21
66.19294004327391
 31
0.0
  0
LINE
  5
1F9
330
1F
100
AcDbEntity
  8
0
  6
Continuous
 62
     7
100
AcDbLine
 10
-74.28270952585271
 20
66.19294004327391
 30
0.0
 11
-71.53270952585271
 21
66.19294004327391
 31
0.0
  0
LINE
  5
1FA
330
1F
100
AcDbEntity
  8
0
  6
Continuous
 62
     7
100
AcDbLine
 10
-74.28270952585271
 20
66.19294004327391
 30
0.0
 11
-74.28270952585271
 21
72.19294004327391
 31
0.0
  0
LINE
  5
1FB
330
1F
100
AcDbEntity
  8
0
  6
Continuous
 62
     7
100
AcDbLine
 10
-74.28270952585271
 20
72.19294004327391
 30
0.0
 11
-74.28270952585271
 21
75.19294004327391
 31
0.0
  0
LINE
  5
1FC
330
1F
100
AcDbEntity
  8
0
  6
Continuous
 62
     7
100
AcDbLine
 10
-67.03270952585275
 20
66.19294004327391
 30
0.0
 11
-66.03270952585271
 21
66.19294004327391
 31
0.0
  0
LINE
  5
1FD
330
1F
100
AcDbEntity
  8
0
  6
Continuous
 62
     7
100
AcDbLine
 10
-53.78270952585271
 20
64.39294004327391
 30
0.0
 11
-53.78270952585271
 21
66.19294004327391
 31
0.0
  0
LINE
  5
1FE
330
1F
100
AcDbEntity
  8
0
  6
Continuous
 62
     7
100
AcDbLine
 10
-53.78270952585271
 20
75.19294004327391
 30
0.0
 11
-53.78270952585271
 21
72.19294004327391
 31
0.0
  0
LINE
  5
1FF
330
1F
100
AcDbEntity
  8
0
  6
Continuous
 62
     7
100
AcDbLine
 10
-53.78270952585271
 20
72.19294004327391
 30
0.0
 11
-53.78270952585271
 21
66.19294004327391
 31
0.0
  0
LINE
  5
200
330
1F
100
AcDbEntity
  8
0
  6
Continuous
 62
     7
100
AcDbLine
 10
-61.53270952585271
 20
59.8929400432739
 30
0.0
 11
-61.53270952585271
 21
56.8929400432739
 31
0.0
  0
LINE
  5
201
330
1F
100
AcDbEntity
  8
0
  6
Continuous
 62
     7
100
AcDbLine
 10
-61.53270952585271
 20
56.8929400432739
 30
0.0
 11
-66.53270952585271
 21
56.8929400432739
 31
0.0
  0
LINE
  5
202
330
1F
100
AcDbEntity
  8
0
  6
Continuous
 62
     7
100
AcDbLine
 10
-60.4827095258527
 20
59.8929400432739
 30
0.0
 11
-61.2327095258527
 21
59.8929400432739
 31
0.0
  0
LINE
  5
203
330
1F
100
AcDbEntity
  8
0
  6
Continuous
 62
     7
100
AcDbLine
 10
-60.28270952585271
 20
63.9929400432739
 30
0.0
 11
-60.28270952585271
 21
60.09294004327391
 31
0.0
  0
LINE
  5
204
330
1F
100
AcDbEntity
  8
0
  6
Continuous
 62
     7
100
AcDbLine
 10
-67.0327095258527
 20
64.19294004327391
 30
0.0
 11
-67.03270952585275
 21
66.19294004327391
 31
0.0
  0
LINE
  5
205
330
1F
100
AcDbEntity
  8
0
  6
Continuous
 62
     7
100
AcDbLine
 10
-61.0327095258527
 20
64.19294004327391
 30
0.0
 11
-61.0327095258527
 21
60.09294004327391
 31
0.0
  0
LINE
  5
206
330
1F
100
AcDbEntity
  8
0
  6
Continuous
 62
     7
100
AcDbLine
 10
-56.53270952585271
 20
66.19294004327391
 30
0.0
 11
-56.53270952585271
 21
64.39294004327391
 31
0.0
  0
LINE
  5
207
330
1F
100
AcDbEntity
  8
0
  6
Continuous
 62
     7
100
AcDbLine
 10
-61.03270952585264
 20
66.19294004327391
 30
0.0
 11
-61.0327095258527
 21
64.19294004327391
 31
0.0
  0
LINE
  5
208
330
1F
100
AcDbEntity
  8
0
  6
Continuous
 62
     7
100
AcDbLine
 10
-59.48270952585263
 20
64.39294004327391
 30
0.0
 11
-59.48270952585271
 21
66.19294004327391
 31
0.0
  0
LINE
  5
209
330
1F
100
AcDbEntity
  8
0
  6
Continuous
 62
     7
100
AcDbLine
 10
-56.53270952585271
 20
64.19294004327391
 30
0.0
 11
-53.9827095258527
 21
64.19294004327391
 31
0.0
  0
LINE
  5
20A
330
1F
100
AcDbEntity
  8
0
  6
Continuous
 62
     7
100
AcDbLine
 10
-56.53270952585271
 20
64.39294004327391
 30
0.0
 11
-56.53270952585271
 21
64.19294004327391
 31
0.0
  0
LINE
  5
20B
330
1F
100
AcDbEntity
  8
0
  6
Continuous
 62
     7
100
AcDbLine
 10
-59.68270952585263
 20
64.19294004327391
 30
0.0
 11
-61.0327095258527
 21
64.19294004327391
 31
0.0
  0
LINE
  5
20C
330
1F
100
AcDbEntity
  8
0
  6
Continuous
 62
     7
100
AcDbLine
 10
-56.53270952585271
 20
66.19294004327391
 30
0.0
 11
-53.78270952585271
 21
66.19294004327391
 31
0.0
  0
LINE
  5
20D
330
1F
100
AcDbEntity
  8
0
  6
Continuous
 62
     7
100
AcDbLine
 10
-59.48270952585271
 20
66.19294004327391
 30
0.0
 11
-56.53270952585271
 21
66.19294004327391
 31
0.0
  0
LINE
  5
20E
330
1F
100
AcDbEntity
  8
0
  6
Continuous
 62
     7
100
AcDbLine
 10
-59.68270952585263
 20
64.19294004327391
 30
0.0
 11
-56.53270952585271
 21
64.19294004327391
 31
0.0
  0
LINE
  5
20F
330
1F
100
AcDbEntity
  8
0
  6
Continuous
 62
     7
100
AcDbLine
 10
-66.53270952585271
 20
59.8929400432739
 30
0.0
 11
-66.53270952585271
 21
56.8929400432739
 31
0.0
  0
LINE
  5
210
330
1F
100
AcDbEntity
  8
0
  6
Continuous
 62
     7
100
AcDbLine
 10
-68.5827095258527
 20
66.19294004327391
 30
0.0
 11
-68.58270952585274
 21
64.39294004327391
 31
0.0
  0
LINE
  5
211
330
1F
100
AcDbEntity
  8
0
  6
Continuous
 62
     7
100
AcDbLine
 10
-71.53270952585271
 20
66.19294004327391
 30
0.0
 11
-71.53270952585271
 21
64.39294004327391
 31
0.0
  0
LINE
  5
212
330
1F
100
AcDbEntity
  8
0
  6
Continuous
 62
     7
100
AcDbLine
 10
-62.43270952585272
 20
66.19294004327391
 30
0.0
 11
-62.03270952585271
 21
66.19294004327391
 31
0.0
  0
LINE
  5
213
330
1F
100
AcDbEntity
  8
0
  6
Continuous
 62
     7
100
AcDbLine
 10
-66.03270952585271
 20
66.19294004327391
 30
0.0
 11
-65.63270952585272
 21
66.19294004327391
 31
0.0
  0
LINE
  5
214
330
1F
100
AcDbEntity
  8
0
  6
Continuous
 62
     7
100
AcDbLine
 10
-65.63270952585272
 20
66.19294004327391
 30
0.0
 11
-62.43270952585272
 21
66.19294004327391
 31
0.0
  0
LINE
  5
215
330
1F
100
AcDbEntity
  8
0
  6
Continuous
 62
     7
100
AcDbLine
 10
-66.83270952585269
 20
59.8929400432739
 30
0.0
 11
-61.2327095258527
 21
59.8929400432739
 31
0.0
  0
LINE
  5
216
330
1F
100
AcDbEntity
  8
0
  6
Continuous
 62
     7
100
AcDbLine
 10
-66.83270952585269
 20
59.8929400432739
 30
0.0
 11
-67.58270952585269
 21
59.8929400432739
 31
0.0
  0
LINE
  5
217
330
1F
100
AcDbEntity
  8
0
  6
Continuous
 62
     7
100
AcDbLine
 10
-67.78270952585271
 20
63.9929400432739
 30
0.0
 11
-67.78270952585271
 21
60.09294004327391
 31
0.0
  0
LINE
  5
218
330
1F
100
AcDbEntity
  8
0
  6
Continuous
 62
     7
100
AcDbLine
 10
-67.0327095258527
 20
64.19294004327391
 30
0.0
 11
-67.0327095258527
 21
60.09294004327298
 31
0.0
  0
LINE
  5
219
330
1F
100
AcDbEntity
  8
0
  6
Continuous
 62
     7
100
AcDbLine
 10
-67.0327095258527
 20
64.19294004327391
 30
0.0
 11
-68.38270952585273
 21
64.19294004327391
 31
0.0
  0
LINE
  5
21A
330
1F
100
AcDbEntity
  8
0
  6
Continuous
 62
     7
100
AcDbLine
 10
-74.08270952585269
 20
64.19294004327391
 30
0.0
 11
-71.53270952585271
 21
64.19294004327391
 31
0.0
  0
LINE
  5
21B
330
1F
100
AcDbEntity
  8
0
  6
Continuous
 62
     7
100
AcDbLine
 10
-71.53270952585271
 20
64.39294004327391
 30
0.0
 11
-71.53270952585271
 21
64.19294004327391
 31
0.0
  0
LINE
  5
21C
330
1F
100
AcDbEntity
  8
0
  6
Continuous
 62
     7
100
AcDbLine
 10
-74.28270952585271
 20
64.39294004327391
 30
0.0
 11
-74.28270952585271
 21
66.19294004327391
 31
0.0
  0
LINE
  5
21D
330
1F
100
AcDbEntity
  8
0
  6
Continuous
 62
     7
100
AcDbLine
 10
-68.5827095258527
 20
66.19294004327391
 30
0.0
 11
-67.03270952585275
 21
66.19294004327391
 31
0.0
  0
LINE
  5
21E
330
1F
100
AcDbEntity
  8
0
  6
Continuous
 62
     7
100
AcDbLine
 10
-71.53270952585271
 20
66.19294004327391
 30
0.0
 11
-68.5827095258527
 21
66.19294004327391
 31
0.0
  0
LINE
  5
21F
330
1F
100
AcDbEntity
  8
0
  6
Continuous
 62
     7
100
AcDbLine
 10
-71.53270952585271
 20
64.19294004327391
 30
0.0
 11
-68.38270952585273
 21
64.19294004327391
 31
0.0
  0
LINE
  5
220
330
1F
100
AcDbEntity
  8
0
  6
Continuous
 62
     7
100
AcDbLine
 10
-61.03270952585264
 20
66.19294004327391
 30
0.0
 11
-61.03270952585264
 21
83.6929400432742
 31
0.0
  0
LINE
  5
221
330
1F
100
AcDbEntity
  8
0
  6
Continuous
 62
     7
100
AcDbLine
 10
-62.1327095258527
 20
78.70485050806684
 30
0.0
 11
-62.1327095258527
 21
66.19294004327391
 31
0.0
  0
LINE
  5
222
330
1F
100
AcDbEntity
  8
0
  6
Continuous
 62
     7
100
AcDbLine
 10
-61.03270952585264
 20
66.19294004327391
 30
0.0
 11
-59.48270952585271
 21
66.19294004327391
 31
0.0
  0
LINE
  5
223
330
1F
100
AcDbEntity
  8
0
  6
Continuous
 62
     7
100
AcDbLine
 10
-59.48270952585271
 20
66.19294004327391
 30
0.0
 11
-59.48270952585271
 21
78.3929400432739
 31
0.0
  0
LINE
  5
224
330
1F
100
AcDbEntity
  8
0
  6
Continuous
 62
     7
100
AcDbLine
 10
-56.53270952585271
 20
66.19294004327391
 30
0.0
 11
-56.5327095258527
 21
78.3929400432739
 31
0.0
  0
LINE
  5
225
330
1F
100
AcDbEntity
  8
0
  6
Continuous
 62
     7
100
AcDbLine
 10
-62.1327095258527
 20
66.19294004327391
 30
0.0
 11
-61.03270952585264
 21
66.19294004327391
 31
0.0
  0
LINE
  5
226
330
1F
100
AcDbEntity
  8
0
  6
Continuous
 62
     7
100
AcDbLine
 10
-68.83315489195988
 20
99.9929400432739
 30
0.0
 11
-68.83270952585269
 21
99.9929400432739
 31
0.0
  0
LINE
  5
227
330
1F
100
AcDbEntity
  8
0
  6
Continuous
 62
     7
100
AcDbLine
 10
-68.83315489195988
 20
99.9929400432739
 30
0.0
 11
-71.08270952585269
 21
99.9929400432739
 31
0.0
  0
LINE
  5
228
330
1F
100
AcDbEntity
  8
0
  6
Continuous
 62
     7
100
AcDbLine
 10
-72.7827095258527
 20
99.9929400432739
 30
0.0
 11
-71.08270952585269
 21
99.9929400432739
 31
0.0
  0
LINE
  5
229
330
1F
100
AcDbEntity
  8
0
  6
Continuous
 62
     7
100
AcDbLine
 10
-71.08270952585269
 20
99.9929400432739
 30
0.0
 11
-71.08270952585269
 21
99.7929400432739
 31
0.0
  0
LINE
  5
22A
330
1F
100
AcDbEntity
  8
0
  6
Continuous
 62
     7
100
AcDbLine
 10
-74.28270952585271
 20
66.19294004327391
 30
0.0
 11
-73.3827095258527
 21
66.19294004327391
 31
0.0
  0
LINE
  5
22B
330
1F
100
AcDbEntity
  8
0
  6
Continuous
 62
     7
100
AcDbLine
 10
-73.3827095258527
 20
66.19294004327391
 30
0.0
 11
-71.53270952585271
 21
66.19294004327391
 31
0.0
  0
LINE
  5
22C
330
1F
100
AcDbEntity
  8
0
  6
Continuous
 62
     7
100
AcDbLine
 10
-72.9827095258527
 20
86.1929400432739
 30
0.0
 11
-72.9827095258527
 21
99.7929400432739
 31
0.0
  0
LINE
  5
22D
330
1F
100
AcDbEntity
  8
0
  6
Continuous
 62
     7
100
AcDbLine
 10
-74.28270952585271
 20
66.19294004327391
 30
0.0
 11
-74.28270952585271
 21
75.39294004327391
 31
0.0
  0
LINE
  5
22E
330
1F
100
AcDbEntity
  8
0
  6
Continuous
 62
     7
100
AcDbLine
 10
-74.28270952585271
 20
75.39294004327391
 30
0.0
 11
-74.28270952585271
 21
78.3929400432739
 31
0.0
  0
LINE
  5
22F
330
1F
100
AcDbEntity
  8
0
  6
Continuous
 62
     7
100
AcDbLine
 10
-71.08270952585269
 20
86.1929400432739
 30
0.0
 11
-71.08270952585269
 21
99.7929400432739
 31
0.0
  0
LINE
  5
230
330
1F
100
AcDbEntity
  8
0
  6
Continuous
 62
     7
100
AcDbLine
 10
-74.5327095258527
 20
78.3929400432739
 30
0.0
 11
-74.5327095258527
 21
86.1929400432739
 31
0.0
  0
LINE
  5
231
330
1F
100
AcDbEntity
  8
0
  6
Continuous
 62
     7
100
AcDbLine
 10
-68.2327095258527
 20
99.9929400432739
 30
0.0
 11
-64.33270952585269
 21
99.9929400432739
 31
0.0
  0
LINE
  5
232
330
1F
100
AcDbEntity
  8
0
  6
Continuous
 62
     7
100
AcDbLine
 10
-68.63270952585268
 20
97.69294004327391
 30
0.0
 11
-68.63270952585268
 21
99.7929400432739
 31
0.0
  0
LINE
  5
233
330
1F
100
AcDbEntity
  8
0
  6
Continuous
 62
     7
100
AcDbLine
 10
-68.63315489195988
 20
99.7929400432739
 30
0.0
 11
-68.63270952585268
 21
99.7929400432739
 31
0.0
  0
LINE
  5
234
330
1F
100
AcDbEntity
  8
0
  6
Continuous
 62
     7
100
AcDbLine
 10
-68.43270952585272
 20
97.69294004327391
 30
0.0
 11
-68.43270952585272
 21
99.7929400432739
 31
0.0
  0
LINE
  5
235
330
1F
100
AcDbEntity
  8
0
  6
Continuous
 62
     7
100
AcDbLine
 10
-67.03270952585275
 20
66.19294004327391
 30
0.0
 11
-65.93270952585272
 21
66.19294004327391
 31
0.0
  0
LINE
  5
236
330
1F
100
AcDbEntity
  8
0
  6
Continuous
 62
     7
100
AcDbLine
 10
-65.93270952585272
 20
82.68102957848102
 30
0.0
 11
-65.93270952585272
 21
83.19294004327391
 31
0.0
  0
LINE
  5
237
330
1F
100
AcDbEntity
  8
0
  6
Continuous
 62
     7
100
AcDbLine
 10
-65.93270952585272
 20
66.19294004327391
 30
0.0
 11
-65.93270952585272
 21
78.70485050806685
 31
0.0
  0
LINE
  5
238
330
1F
100
AcDbEntity
  8
0
  6
Continuous
 62
     7
100
AcDbLine
 10
-67.03270952585275
 20
66.19294004327391
 30
0.0
 11
-67.03270952585275
 21
83.6929400432742
 31
0.0
  0
LINE
  5
239
330
1F
100
AcDbEntity
  8
0
  6
Continuous
 62
     7
100
AcDbLine
 10
-68.5827095258527
 20
78.3929400432739
 30
0.0
 11
-68.83270952585272
 21
78.3929400432739
 31
0.0
  0
LINE
  5
23A
330
1F
100
AcDbEntity
  8
0
  6
Continuous
 62
     7
100
AcDbLine
 10
-71.5327095258527
 20
78.3929400432739
 30
0.0
 11
-68.83270952585272
 21
78.3929400432739
 31
0.0
  0
LINE
  5
23B
330
1F
100
AcDbEntity
  8
0
  6
Continuous
 62
     7
100
AcDbLine
 10
-68.83270952585272
 20
85.4929400432739
 30
0.0
 11
-68.83270952585272
 21
78.3929400432739
 31
0.0
  0
LINE
  5
23C
330
1F
100
AcDbEntity
  8
0
  6
Continuous
 62
     7
100
AcDbLine
 10
-71.5327095258527
 20
78.3929400432739
 30
0.0
 11
-71.5327095258527
 21
86.1929400432739
 31
0.0
  0
LINE
  5
23D
330
1F
100
AcDbEntity
  8
0
  6
Continuous
 62
     7
100
AcDbLine
 10
-71.53270952585271
 20
66.19294004327391
 30
0.0
 11
-71.5327095258527
 21
78.3929400432739
 31
0.0
  0
LINE
  5
23E
330
1F
100
AcDbEntity
  8
0
  6
Continuous
 62
     7
100
AcDbLine
 10
-68.5827095258527
 20
78.3929400432739
 30
0.0
 11
-68.5827095258527
 21
66.19294004327391
 31
0.0
  0
LINE
  5
23F
330
1F
100
AcDbEntity
  8
0
  6
Continuous
 62
     7
100
AcDbLine
 10
-68.83270952585272
 20
85.4929400432739
 30
0.0
 11
-67.03270952585275
 21
83.6929400432742
 31
0.0
  0
LINE
  5
240
330
1F
100
AcDbEntity
  8
0
  6
Continuous
 62
     7
100
AcDbLine
 10
-74.5327095258527
 20
78.3929400432739
 30
0.0
 11
-74.28270952585271
 21
78.3929400432739
 31
0.0
  0
LINE
  5
241
330
1F
100
AcDbEntity
  8
0
  6
Continuous
 62
     7
100
AcDbLine
 10
-74.28270952585271
 20
78.3929400432739
 30
0.0
 11
-71.5327095258527
 21
78.3929400432739
 31
0.0
  0
LINE
  5
242
330
1F
100
AcDbEntity
  8
0
  6
Continuous
 62
     7
100
AcDbLine
 10
-53.78270952585271
 20
78.3929400432739
 30
0.0
 11
-56.5327095258527
 21
78.3929400432739
 31
0.0
  0
LINE
  5
243
330
1F
100
AcDbEntity
  8
0
  6
Continuous
 62
     7
100
AcDbLine
 10
-53.5327095258527
 20
86.1929400432739
 30
0.0
 11
-55.08270952585269
 21
86.1929400432739
 31
0.0
  0
LINE
  5
244
330
1F
100
AcDbEntity
  8
0
  6
Continuous
 62
     7
100
AcDbLine
 10
-55.08270952585269
 20
86.1929400432739
 30
0.0
 11
-56.5327095258527
 21
86.1929400432739
 31
0.0
  0
LINE
  5
245
330
1F
100
AcDbEntity
  8
0
  6
Continuous
 62
     7
100
AcDbLine
 10
-53.5327095258527
 20
78.3929400432739
 30
0.0
 11
-53.78270952585271
 21
78.3929400432739
 31
0.0
  0
LINE
  5
246
330
1F
100
AcDbEntity
  8
0
  6
Continuous
 62
     7
100
AcDbLine
 10
-59.23270952585267
 20
78.3929400432739
 30
0.0
 11
-59.23270952585267
 21
85.49294004327392
 31
0.0
  0
LINE
  5
247
330
1F
100
AcDbEntity
  8
0
  6
Continuous
 62
     7
100
AcDbLine
 10
-71.5327095258527
 20
86.1929400432739
 30
0.0
 11
-56.5327095258527
 21
86.1929400432739
 31
0.0
  0
LINE
  5
248
330
1F
100
AcDbEntity
  8
0
  6
Continuous
 62
     7
100
AcDbLine
 10
-59.23270952585267
 20
78.3929400432739
 30
0.0
 11
-56.5327095258527
 21
78.3929400432739
 31
0.0
  0
LINE
  5
249
330
1F
100
AcDbEntity
  8
0
  6
Continuous
 62
     7
100
AcDbLine
 10
-56.5327095258527
 20
86.1929400432739
 30
0.0
 11
-56.5327095258527
 21
78.3929400432739
 31
0.0
  0
LINE
  5
24A
330
1F
100
AcDbEntity
  8
0
  6
Continuous
 62
     7
100
AcDbLine
 10
-53.5327095258527
 20
86.1929400432739
 30
0.0
 11
-53.5327095258527
 21
78.3929400432739
 31
0.0
  0
LINE
  5
24B
330
1F
100
AcDbEntity
  8
0
  6
Continuous
 62
     7
100
AcDbLine
 10
-53.78270952585271
 20
75.39294004327391
 30
0.0
 11
-53.78270952585271
 21
78.3929400432739
 31
0.0
  0
LINE
  5
24C
330
1F
100
AcDbEntity
  8
0
  6
Continuous
 62
     7
100
AcDbLine
 10
-53.78270952585271
 20
75.39294004327391
 30
0.0
 11
-53.78270952585271
 21
66.19294004327391
 31
0.0
  0
LINE
  5
24D
330
1F
100
AcDbEntity
  8
0
  6
Continuous
 62
     7
100
AcDbLine
 10
-66.1327095258527
 20
97.4929400432739
 30
0.0
 11
-66.1327095258527
 21
86.1929400432739
 31
0.0
  0
LINE
  5
24E
330
1F
100
AcDbEntity
  8
0
  6
Continuous
 62
     7
100
AcDbLine
 10
-68.1327095258527
 20
86.1929400432739
 30
0.0
 11
-68.1327095258527
 21
97.4929400432739
 31
0.0
  0
LINE
  5
24F
330
1F
100
AcDbEntity
  8
0
  6
Continuous
 62
     7
100
AcDbLine
 10
-68.63270952585268
 20
97.69294004327391
 30
0.0
 11
-68.63315489195988
 21
97.69294004327391
 31
0.0
  0
LINE
  5
250
330
1F
100
AcDbEntity
  8
0
  6
Continuous
 62
     7
100
AcDbLine
 10
-68.43270952585272
 20
97.69294004327391
 30
0.0
 11
-68.63270952585268
 21
97.69294004327391
 31
0.0
  0
LINE
  5
251
330
1F
100
AcDbEntity
  8
0
  6
Continuous
 62
     7
100
AcDbLine
 10
-65.93270952585272
 20
97.69294004327391
 30
0.0
 11
-68.3327095258527
 21
97.69294004327391
 31
0.0
  0
LINE
  5
252
330
1F
100
AcDbEntity
  8
0
  6
Continuous
 62
     7
100
AcDbLine
 10
-63.93270952585272
 20
97.69294004327391
 30
0.0
 11
-65.93270952585272
 21
97.69294004327391
 31
0.0
  0
LINE
  5
253
330
1F
100
AcDbEntity
  8
0
  6
Continuous
 62
     7
100
AcDbLine
 10
-68.3327095258527
 20
97.69294004327391
 30
0.0
 11
-68.43270952585272
 21
97.69294004327391
 31
0.0
  0
LINE
  5
254
330
1F
100
AcDbEntity
  8
0
  6
Continuous
 62
     7
100
AcDbLine
 10
-59.23270952585267
 20
85.49294004327392
 30
0.0
 11
-68.83270952585272
 21
85.4929400432739
 31
0.0
  0
LINE
  5
255
330
1F
100
AcDbEntity
  8
0
  6
Continuous
 62
     7
100
AcDbLine
 10
-65.93270952585272
 20
83.19294004327391
 30
0.0
 11
-65.17835344959168
 21
83.19294004327391
 31
0.0
  0
LINE
  5
256
330
1F
100
AcDbEntity
  8
0
  6
Continuous
 62
     7
100
AcDbLine
 10
-62.88706560211373
 20
83.19294004327391
 30
0.0
 11
-62.1327095258527
 21
83.19294004327391
 31
0.0
  0
LINE
  5
257
330
1F
100
AcDbEntity
  8
0
  6
Continuous
 62
     7
100
AcDbLine
 10
-74.5327095258527
 20
86.1929400432739
 30
0.0
 11
-72.9827095258527
 21
86.1929400432739
 31
0.0
  0
LINE
  5
258
330
1F
100
AcDbEntity
  8
0
  6
Continuous
 62
     7
100
AcDbLine
 10
-72.9827095258527
 20
86.1929400432739
 30
0.0
 11
-71.5327095258527
 21
86.1929400432739
 31
0.0
  0
LINE
  5
259
330
1F
100
AcDbEntity
  8
0
  6
Continuous
 62
     7
100
AcDbLine
 10
-61.03270952585264
 20
83.6929400432742
 30
0.0
 11
-59.23270952585267
 21
85.49294004327392
 31
0.0
  0
LINE
  5
25A
330
1F
100
AcDbEntity
  8
0
  6
Continuous
 62
     7
100
AcDbLine
 10
-63.7327095258527
 20
99.9929400432739
 30
0.0
 11
-59.83270952585269
 21
99.9929400432739
 31
0.0
  0
LINE
  5
25B
330
1F
100
AcDbEntity
  8
0
  6
Continuous
 62
     7
100
AcDbLine
 10
-59.63270952585268
 20
97.69294004327391
 30
0.0
 11
-62.13270952585272
 21
97.69294004327391
 31
0.0
  0
LINE
  5
25C
330
1F
100
AcDbEntity
  8
0
  6
Continuous
 62
     7
100
AcDbLine
 10
-63.93270952585272
 20
97.69294004327391
 30
0.0
 11
-63.93270952585272
 21
99.7929400432739
 31
0.0
  0
LINE
  5
25D
330
1F
100
AcDbEntity
  8
0
  6
Continuous
 62
     7
100
AcDbLine
 10
-62.13270952585272
 20
97.69294004327391
 30
0.0
 11
-63.93270952585272
 21
97.69294004327391
 31
0.0
  0
LINE
  5
25E
330
1F
100
AcDbEntity
  8
0
  6
Continuous
 62
     7
100
AcDbLine
 10
-64.13270952585268
 20
97.69294004327391
 30
0.0
 11
-64.13270952585268
 21
99.7929400432739
 31
0.0
  0
LINE
  5
25F
330
1F
100
AcDbEntity
  8
0
  6
Continuous
 62
     7
100
AcDbLine
 10
-61.93270952585272
 20
86.1929400432739
 30
0.0
 11
-61.93270952585272
 21
97.4929400432739
 31
0.0
  0
LINE
  5
260
330
1F
100
AcDbEntity
  8
0
  6
Continuous
 62
     7
100
AcDbLine
 10
-62.1327095258527
 20
83.19294004327391
 30
0.0
 11
-62.1327095258527
 21
82.68102957848102
 31
0.0
  0
LINE
  5
261
330
1F
100
AcDbEntity
  8
0
  6
Continuous
 62
     7
100
AcDbLine
 10
-55.08270952585269
 20
95.39294004327391
 30
0.0
 11
-55.08270952585269
 21
86.1929400432739
 31
0.0
  0
LINE
  5
262
330
1F
100
AcDbEntity
  8
0
  6
Continuous
 62
     7
100
AcDbLine
 10
-55.08270952585269
 20
95.39294004327391
 30
0.0
 11
-56.9827095258527
 21
95.39294004327391
 31
0.0
  0
LINE
  5
263
330
1F
100
AcDbEntity
  8
0
  6
Continuous
 62
     7
100
AcDbLine
 10
-55.08270952585269
 20
95.39294004327391
 30
0.0
 11
-55.08270952585269
 21
99.7929400432739
 31
0.0
  0
LINE
  5
264
330
1F
100
AcDbEntity
  8
0
  6
Continuous
 62
     7
100
AcDbLine
 10
-59.2327095258527
 20
99.9929400432739
 30
0.0
 11
-57.2827095258527
 21
99.9929400432739
 31
0.0
  0
LINE
  5
265
330
1F
100
AcDbEntity
  8
0
  6
Continuous
 62
     7
100
AcDbLine
 10
-57.2827095258527
 20
99.9929400432739
 30
0.0
 11
-57.2827095258527
 21
99.7929400432739
 31
0.0
  0
LINE
  5
266
330
1F
100
AcDbEntity
  8
0
  6
Continuous
 62
     7
100
AcDbLine
 10
-57.2827095258527
 20
97.69294004327391
 30
0.0
 11
-57.2827095258527
 21
99.7929400432739
 31
0.0
  0
LINE
  5
267
330
1F
100
AcDbEntity
  8
0
  6
Continuous
 62
     7
100
AcDbLine
 10
-59.63270952585268
 20
97.69294004327391
 30
0.0
 11
-59.63270952585268
 21
95.39294004327391
 31
0.0
  0
LINE
  5
268
330
1F
100
AcDbEntity
  8
0
  6
Continuous
 62
     7
100
AcDbLine
 10
-59.63270952585268
 20
97.69294004327391
 30
0.0
 11
-59.63270952585268
 21
99.7929400432739
 31
0.0
  0
LINE
  5
269
330
1F
100
AcDbEntity
  8
0
  6
Continuous
 62
     7
100
AcDbLine
 10
-57.2827095258527
 20
97.69294004327391
 30
0.0
 11
-59.63270952585268
 21
97.69294004327391
 31
0.0
  0
LINE
  5
26A
330
1F
100
AcDbEntity
  8
0
  6
Continuous
 62
     7
100
AcDbLine
 10
-57.2827095258527
 20
95.39294004327391
 30
0.0
 11
-57.2827095258527
 21
97.69294004327391
 31
0.0
  0
LINE
  5
26B
330
1F
100
AcDbEntity
  8
0
  6
Continuous
 62
     7
100
AcDbLine
 10
-55.2827095258527
 20
99.9929400432739
 30
0.0
 11
-57.2827095258527
 21
99.9929400432739
 31
0.0
  0
LINE
  5
26C
330
1F
100
AcDbEntity
  8
0
  6
Continuous
 62
     7
100
AcDbLine
 10
-59.43270952585272
 20
97.69294004327391
 30
0.0
 11
-59.43270952585272
 21
99.7929400432739
 31
0.0
  0
LINE
  5
26D
330
1F
100
AcDbEntity
  8
0
  6
Continuous
 62
     7
100
AcDbLine
 10
-59.23270952585267
 20
78.3929400432739
 30
0.0
 11
-59.48270952585271
 21
78.3929400432739
 31
0.0
  0
LINE
  5
26E
330
1F
100
AcDbEntity
  8
0
  6
Continuous
 62
     7
100
AcDbLine
 10
-59.93270952585272
 20
95.39294004327391
 30
0.0
 11
-56.9827095258527
 21
95.39294004327391
 31
0.0
  0
LINE
  5
26F
330
1F
100
AcDbEntity
  8
0
  6
Continuous
 62
     7
100
AcDbLine
 10
-56.9827095258527
 20
95.39294004327391
 30
0.0
 11
-56.9827095258527
 21
86.1929400432739
 31
0.0
  0
LINE
  5
270
330
1F
100
AcDbEntity
  8
0
  6
Continuous
 62
     7
100
AcDbLine
 10
-59.93270952585272
 20
95.39294004327391
 30
0.0
 11
-59.93270952585272
 21
86.1929400432739
 31
0.0
  0
LINE
  5
271
330
1F
100
AcDbEntity
  8
0
  6
Continuous
 62
     7
100
AcDbLine
 10
-56.53270952585271
 20
66.19294004327391
 30
0.0
 11
-54.68270952585272
 21
66.19294004327391
 31
0.0
  0
LINE
  5
272
330
1F
100
AcDbEntity
  8
0
  6
Continuous
 62
     7
100
AcDbLine
 10
-54.68270952585272
 20
66.19294004327391
 30
0.0
 11
-53.78270952585271
 21
66.19294004327391
 31
0.0
  0
LINE
  5
273
330
1F
100
AcDbEntity
  8
0
  6
Continuous
 62
     7
100
AcDbLine
 10
-59.48270952585271
 20
66.19294004327391
 30
0.0
 11
-56.53270952585271
 21
66.19294004327391
 31
0.0
  0
LINE
  5
274
330
1F
100
AcDbEntity
  8
0
  6
Continuous
 62
     7
100
AcDbLine
 10
-65.93270952585272
 20
66.19294004327391
 30
0.0
 11
-62.1327095258527
 21
66.19294004327391
 31
0.0
  0
LINE
  5
275
330
1F
100
AcDbEntity
  8
0
  6
Continuous
 62
     7
100
AcDbLine
 10
-68.5827095258527
 20
66.19294004327391
 30
0.0
 11
-67.03270952585275
 21
66.19294004327391
 31
0.0
  0
LINE
  5
276
330
1F
100
AcDbEntity
  8
0
  6
Continuous
 62
     7
100
AcDbLine
 10
-71.53270952585271
 20
66.19294004327391
 30
0.0
 11
-68.5827095258527
 21
66.19294004327391
 31
0.0
  0
LINE
  5
277
330
1F
100
AcDbEntity
  8
1
  6
Continuous
 62
     7
100
AcDbLine
 10
-65.75257794120981
 20
133.8918537660485
 30
0.0
 11
-62.71284111049566
 21
135.6468466435269
 31
0.0
  0
LINE
  5
278
330
1F
100
AcDbEntity
  8
1
  6
Continuous
 62
     7
100
AcDbLine
 10
-65.3525779412098
 20
133.1990334430209
 30
0.0
 11
-62.31284111049566
 21
134.9540263204994
 31
0.0
  0
LINE
  5
279
330
1F
100
AcDbEntity
  8
1
  6
Continuous
 62
     7
100
AcDbLine
 10
-65.67373011413515
 20
140.0229400432742
 30
0.0
 11
-65.67373011413515
 21
140.5271786103916
 31
0.0
  0
LINE
  5
27A
330
1F
100
AcDbEntity
  8
1
  6
Continuous
 62
     7
100
AcDbLine
 10
-66.23941553908439
 20
140.0229400432742
 30
0.0
 11
-65.67373011413515
 21
140.0229400432742
 31
0.0
  0
LINE
  5
27B
330
1F
100
AcDbEntity
  8
1
  6
Continuous
 62
     7
100
AcDbLine
 10
-66.23941553908439
 20
140.3199739908995
 30
0.0
 11
-66.23941553908439
 21
140.0229400432742
 31
0.0
  0
LINE
  5
27C
330
1F
100
AcDbEntity
  8
1
  6
Continuous
 62
     2
100
AcDbLine
 10
-62.5327095258527
 20
138.1486759745622
 30
0.0
 11
-62.7827095258527
 21
137.8986759745622
 31
0.0
  0
LINE
  5
27D
330
1F
100
AcDbEntity
  8
1
  6
Continuous
 62
     7
100
AcDbLine
 10
-66.61686423301394
 20
139.6729400432742
 30
0.0
 11
-63.55517703726856
 21
139.6729400432742
 31
0.0
  0
LINE
  5
27E
330
1F
100
AcDbEntity
  8
1
  6
Continuous
 62
     7
100
AcDbLine
 10
-66.61686423301394
 20
139.6729400432742
 30
0.0
 11
-65.44224845703154
 21
138.3729400432742
 31
0.0
  0
LINE
  5
27F
330
1F
100
AcDbEntity
  8
1
  6
Continuous
 62
     7
100
AcDbLine
 10
-61.57101029844118
 20
139.6729400432742
 30
0.0
 11
-61.23270952585271
 21
139.6729400432742
 31
0.0
  0
LINE
  5
280
330
1F
100
AcDbEntity
  8
1
  6
Continuous
 62
     7
100
AcDbLine
 10
-61.44855481869145
 20
139.6729400432742
 30
0.0
 11
-62.62317059467388
 21
138.3729400432742
 31
0.0
  0
LINE
  5
281
330
1F
100
AcDbEntity
  8
1
  6
Continuous
 62
     7
100
AcDbLine
 10
-62.18004619285507
 20
139.6729400432742
 30
0.0
 11
-61.57101029844118
 21
139.6729400432742
 31
0.0
  0
LINE
  5
282
330
1F
100
AcDbEntity
  8
1
  6
Continuous
 62
     7
100
AcDbLine
 10
-61.92608730727552
 20
139.6729400432742
 30
0.0
 11
-62.88364286117424
 21
138.3729400432742
 31
0.0
  0
LINE
  5
283
330
1F
100
AcDbEntity
  8
1
  6
Continuous
 62
     7
100
AcDbLine
 10
-63.55517703726856
 20
139.6729400432742
 30
0.0
 11
-62.18004619285507
 21
139.6729400432742
 31
0.0
  0
LINE
  5
284
330
1F
100
AcDbEntity
  8
1
  6
Continuous
 62
     7
100
AcDbLine
 10
-63.55517703726856
 20
139.6729400432742
 30
0.0
 11
-63.77223725935222
 21
138.3729400432742
 31
0.0
  0
LINE
  5
285
330
1F
100
AcDbEntity
  8
1
  6
Continuous
 62
     7
100
AcDbLine
 10
-65.40770952585264
 20
139.6729400432742
 30
0.0
 11
-64.78270952585267
 21
138.3729400432742
 31
0.0
  0
LINE
  5
286
330
1F
100
AcDbEntity
  8
1
  6
Continuous
 62
     7
100
AcDbLine
 10
-66.13933174442987
 20
139.6729400432742
 30
0.0
 11
-65.18177619053115
 21
138.3729400432742
 31
0.0
  0
LINE
  5
287
330
1F
100
AcDbEntity
  8
1
  6
Continuous
 62
     7
100
AcDbLine
 10
-65.5327095258527
 20
138.1486759745622
 30
0.0
 11
-65.5327095258527
 21
137.2729400432739
 31
0.0
  0
LINE
  5
288
330
1F
100
AcDbEntity
  8
1
  6
Continuous
 62
     2
100
AcDbLine
 10
-65.2827095258527
 20
137.8986759745622
 30
0.0
 11
-65.5327095258527
 21
138.1486759745622
 31
0.0
  0
LINE
  5
289
330
1F
100
AcDbEntity
  8
1
  6
Continuous
 62
     7
100
AcDbLine
 10
-66.83270952585268
 20
139.6729400432742
 30
0.0
 11
-65.62057749149672
 21
138.4608080089182
 31
0.0
  0
LINE
  5
28A
330
1F
100
AcDbEntity
  8
1
  6
Continuous
 62
     2
100
AcDbLine
 10
-65.2827095258527
 20
137.8986759745622
 30
0.0
 11
-65.2827095258527
 21
137.2729400432739
 31
0.0
  0
LINE
  5
28B
330
1F
100
AcDbEntity
  8
1
  6
Continuous
 62
     2
100
AcDbLine
 10
-62.7827095258527
 20
137.8986759745622
 30
0.0
 11
-62.7827095258527
 21
137.2729400432739
 31
0.0
  0
LINE
  5
28C
330
1F
100
AcDbEntity
  8
1
  6
Continuous
 62
     2
100
AcDbLine
 10
-62.7827095258527
 20
137.8986759745622
 30
0.0
 11
-65.2827095258527
 21
137.8986759745622
 31
0.0
  0
LINE
  5
28D
330
1F
100
AcDbEntity
  8
1
  6
Continuous
 62
     7
100
AcDbLine
 10
-65.5327095258527
 20
138.2486759745622
 30
0.0
 11
-65.5327095258527
 21
138.1486759745622
 31
0.0
  0
LINE
  5
28E
330
1F
100
AcDbEntity
  8
1
  6
Continuous
 62
     7
100
AcDbLine
 10
-62.5327095258527
 20
138.2486759745622
 30
0.0
 11
-62.5327095258527
 21
137.2729400432739
 31
0.0
  0
LINE
  5
28F
330
1F
100
AcDbEntity
  8
1
  6
Continuous
 62
     7
100
AcDbLine
 10
-66.83270952585268
 20
140.0229400432742
 30
0.0
 11
-66.83270952585268
 21
139.6729400432742
 31
0.0
  0
LINE
  5
290
330
1F
100
AcDbEntity
  8
1
  6
Continuous
 62
     7
100
AcDbLine
 10
-64.51024201443674
 20
139.6729400432742
 30
0.0
 11
-64.29318179235308
 21
138.3729400432742
 31
0.0
  0
LINE
  5
291
330
1F
100
AcDbEntity
  8
1
  6
Continuous
 62
     7
100
AcDbLine
 10
-61.23270952585271
 20
139.6729400432742
 30
0.0
 11
-61.23270952585271
 21
140.0229400432742
 31
0.0
  0
LINE
  5
292
330
1F
100
AcDbEntity
  8
1
  6
Continuous
 62
     7
100
AcDbLine
 10
-66.83270952585268
 20
139.6729400432742
 30
0.0
 11
-66.61686423301394
 21
139.6729400432742
 31
0.0
  0
LINE
  5
293
330
1F
100
AcDbEntity
  8
1
  6
Continuous
 62
     7
100
AcDbLine
 10
-62.44484156020867
 20
138.4608080089182
 30
0.0
 11
-61.23270952585271
 21
139.6729400432742
 31
0.0
  0
LINE
  5
294
330
1F
100
AcDbEntity
  8
1
  6
Continuous
 62
     7
100
AcDbLine
 10
-65.55965560951536
 20
138.3729400432742
 30
0.0
 11
-62.50576344219
 21
138.3729400432742
 31
0.0
  0
LINE
  5
295
330
1F
100
AcDbEntity
  8
1
  6
Continuous
 62
     7
100
AcDbLine
 10
-62.65770952585264
 20
139.6729400432742
 30
0.0
 11
-63.28270952585267
 21
138.3729400432742
 31
0.0
  0
LINE
  5
296
330
1F
100
AcDbEntity
  8
0
  6
Continuous
 62
     7
100
AcDbLine
 10
-66.23270952585241
 20
139.0729400432739
 30
0.0
 11
-68.83270952585272
 21
139.0729400432739
 31
0.0
  0
LINE
  5
297
330
1F
100
AcDbEntity
  8
0
  6
Continuous
 62
     7
100
AcDbLine
 10
-67.03270952585275
 20
83.6929400432742
 30
0.0
 11
-61.03270952585264
 21
83.6929400432742
 31
0.0
  0
LINE
  5
298
330
1F
100
AcDbEntity
  8
1
  6
Continuous
 62
     7
100
AcDbLine
 10
-39.63230946032591
 20
7.70253384026496
 30
0.0
 11
-38.63686871569278
 21
7.70253384026496
 31
0.0
  0
LINE
  5
299
330
1F
100
AcDbEntity
  8
1
  6
Continuous
 62
     7
100
AcDbLine
 10
-39.28102240644183
 20
7.26342502290977
 30
0.0
 11
-37.98764734441387
 21
7.26342502290977
 31
0.0
  0
LINE
  5
29A
330
1F
100
AcDbEntity
  8
1
  6
Continuous
 62
     7
100
AcDbLine
 10
-38.92973535255767
 20
6.82431620555464
 30
0.0
 11
-38.33893439829798
 21
6.82431620555464
 31
0.0
  0
LINE
  5
29B
330
1F
100
AcDbEntity
  8
1
  6
Continuous
 62
     7
100
AcDbLine
 10
-38.63686871569278
 20
8.63809610980424
 30
0.0
 11
-38.63686871569278
 21
7.70253384026496
 31
0.0
  0
LINE
  5
29C
330
1F
100
AcDbEntity
  8
1
  6
Continuous
 62
     7
100
AcDbLine
 10
-38.63686871569278
 20
7.70253384026496
 30
0.0
 11
-37.63636029052973
 21
7.70253384026496
 31
0.0
  0
LINE
  5
29D
102
{ACAD_REACTORS
330
3DC
102
}
330
1F
100
AcDbEntity
  8
1
  6
Continuous
 62
     2
100
AcDbLine
 10
-28.34713923928964
 20
82.28933093666537
 30
0.0
 11
-28.34713923928964
 21
82.76564490874681
 31
0.0
  0
LINE
  5
29E
102
{ACAD_REACTORS
330
3DC
102
}
330
1F
100
AcDbEntity
  8
1
  6
Continuous
 62
     2
100
AcDbLine
 10
-28.34713923928964
 20
82.76564490874681
 30
0.0
 11
-28.58244640828286
 21
82.35808093666537
 31
0.0
  0
LINE
  5
29F
102
{ACAD_REACTORS
330
3DC
102
}
330
1F
100
AcDbEntity
  8
1
  6
Continuous
 62
     2
100
AcDbLine
 10
-28.66183207029643
 20
82.35808093666537
 30
0.0
 11
-28.89713923928964
 21
82.76564490874681
 31
0.0
  0
LINE
  5
2A0
102
{ACAD_REACTORS
330
3DC
102
}
330
1F
100
AcDbEntity
  8
1
  6
Continuous
 62
     2
100
AcDbLine
 10
-28.89713923928964
 20
82.76564490874681
 30
0.0
 11
-28.89713923928964
 21
82.28933093666537
 31
0.0
  0
LINE
  5
2A1
330
1F
100
AcDbEntity
  8
1
  6
Continuous
 62
     2
100
AcDbLine
 10
-30.93665893995353
 20
82.32903110935925
 30
0.0
 11
-28.62213923928964
 21
83.66433093666537
 31
0.0
  0
LINE
  5
2A2
330
1F
100
AcDbEntity
  8
1
  6
Continuous
 62
     2
100
AcDbLine
 10
-28.62213923928964
 20
83.66433093666537
 30
0.0
 11
-26.30761953862571
 21
82.32903110935925
 31
0.0
  0
LINE
  5
2A3
330
1F
100
AcDbEntity
  8
1
  6
Continuous
 62
     2
100
AcDbLine
 10
-26.30761953862571
 20
82.24963076397144
 30
0.0
 11
-28.62213923928964
 21
80.91433093666537
 31
0.0
  0
LINE
  5
2A4
330
1F
100
AcDbEntity
  8
1
  6
Continuous
 62
     2
100
AcDbLine
 10
-28.62213923928964
 20
80.91433093666537
 30
0.0
 11
-30.93665893995353
 21
82.24963076397144
 31
0.0
  0
LINE
  5
2A5
102
{ACAD_REACTORS
330
3DC
102
}
330
1F
100
AcDbEntity
  8
1
  6
Continuous
 62
     2
100
AcDbLine
 10
-29.08047257262297
 20
82.28933093666537
 30
0.0
 11
-29.08047257262297
 21
83.1779156974749
 31
0.0
  0
LINE
  5
2A6
102
{ACAD_REACTORS
330
3DC
102
}
330
1F
100
AcDbEntity
  8
1
  6
Continuous
 62
     2
100
AcDbLine
 10
-28.94450330962652
 20
83.21434855169024
 30
0.0
 11
-28.62213923928964
 21
82.655997603332
 31
0.0
  0
LINE
  5
2A7
102
{ACAD_REACTORS
330
3DC
102
}
330
1F
100
AcDbEntity
  8
1
  6
Continuous
 62
     2
100
AcDbLine
 10
-29.08047257262297
 20
82.28933093666537
 30
0.0
 11
-29.08047257262297
 21
81.83491683163945
 31
0.0
  0
LINE
  5
2A8
102
{ACAD_REACTORS
330
3DC
102
}
330
1F
100
AcDbEntity
  8
1
  6
Continuous
 62
     2
100
AcDbLine
 10
-28.89713923928964
 20
81.83491683163945
 30
0.0
 11
-28.89713923928964
 21
82.28933093666537
 31
0.0
  0
LINE
  5
2A9
102
{ACAD_REACTORS
330
3DC
102
}
330
1F
100
AcDbEntity
  8
1
  6
Continuous
 62
     2
100
AcDbLine
 10
-28.34713923928964
 20
82.28933093666537
 30
0.0
 11
-28.34713923928964
 21
81.41160493108086
 31
0.0
  0
LINE
  5
2AA
102
{ACAD_REACTORS
330
3DC
102
}
330
1F
100
AcDbEntity
  8
1
  6
Continuous
 62
     2
100
AcDbLine
 10
-28.16380590595627
 20
81.41160493108086
 30
0.0
 11
-28.16380590595627
 21
83.1779156974749
 31
0.0
  0
LINE
  5
2AB
102
{ACAD_REACTORS
330
3DC
102
}
330
1F
100
AcDbEntity
  8
1
  6
Continuous
 62
     2
100
AcDbLine
 10
-28.29977516895277
 20
83.21434855169024
 30
0.0
 11
-28.62213923928964
 21
82.655997603332
 31
0.0
  0
LINE
  5
2AC
102
{ACAD_REACTORS
330
3DB
102
}
330
1F
100
AcDbEntity
  8
1
  6
Continuous
 62
     2
100
AcDbLine
 10
-29.44713923928965
 20
81.67608675237435
 30
0.0
 11
-29.44713923928965
 21
82.95551848071142
 31
0.0
  0
LINE
  5
2AD
102
{ACAD_REACTORS
330
3DB
102
}
330
1F
100
AcDbEntity
  8
1
  6
Continuous
 62
     2
100
AcDbLine
 10
-29.26380590595633
 20
82.95551848071142
 30
0.0
 11
-29.26380590595633
 21
81.67608675237435
 31
0.0
  0
LINE
  5
2AE
102
{ACAD_REACTORS
330
3DB
102
}
330
1F
100
AcDbEntity
  8
1
  6
Continuous
 62
     2
100
AcDbLine
 10
-29.26380590595633
 20
81.67608675237435
 30
0.0
 11
-28.66799801438645
 21
81.33235143031482
 31
0.0
  0
LINE
  5
2AF
102
{ACAD_REACTORS
330
3DB
102
}
330
1F
100
AcDbEntity
  8
1
  6
Continuous
 62
     2
100
AcDbLine
 10
-28.7596137975262
 20
81.17355073953922
 30
0.0
 11
-29.35542168909603
 21
81.51728606159874
 31
0.0
  0
LINE
  5
2B0
102
{ACAD_REACTORS
330
3DA
102
}
330
1F
100
AcDbEntity
  8
1
  6
Continuous
 62
     2
100
AcDbLine
 10
-29.63047257262296
 20
82.74398001917294
 30
0.0
 11
-29.63047257262296
 21
81.88762521391281
 31
0.0
  0
LINE
  5
2B1
102
{ACAD_REACTORS
330
3DA
102
}
330
1F
100
AcDbEntity
  8
1
  6
Continuous
 62
     2
100
AcDbLine
 10
-29.63047257262296
 20
81.88762521391281
 30
0.0
 11
-29.63047257262296
 21
81.83468185415776
 31
0.0
  0
LINE
  5
2B2
102
{ACAD_REACTORS
330
3DA
102
}
330
1F
100
AcDbEntity
  8
1
  6
Continuous
 62
     2
100
AcDbLine
 10
-29.81380590595634
 20
81.83468185415776
 30
0.0
 11
-29.81380590595634
 21
82.74398001917294
 31
0.0
  0
LINE
  5
2B3
102
{ACAD_REACTORS
330
3DD
102
}
330
1F
100
AcDbEntity
  8
1
  6
Continuous
 62
     2
100
AcDbLine
 10
-27.84299801438645
 20
83.03491882609919
 30
0.0
 11
-27.47633134771977
 21
82.82338036456072
 31
0.0
  0
LINE
  5
2B4
102
{ACAD_REACTORS
330
3DD
102
}
330
1F
100
AcDbEntity
  8
1
  6
Continuous
 62
     2
100
AcDbLine
 10
-27.56794713085952
 20
82.66457967378517
 30
0.0
 11
-27.79713923928964
 21
82.79680589018717
 31
0.0
  0
LINE
  5
2B5
102
{ACAD_REACTORS
330
3DD
102
}
330
1F
100
AcDbEntity
  8
1
  6
Continuous
 62
     2
100
AcDbLine
 10
-27.79713923928964
 20
82.79680589018717
 30
0.0
 11
-27.79713923928964
 21
82.380997603332
 31
0.0
  0
LINE
  5
2B6
102
{ACAD_REACTORS
330
3DD
102
}
330
1F
100
AcDbEntity
  8
1
  6
Continuous
 62
     2
100
AcDbLine
 10
-27.79713923928964
 20
82.380997603332
 30
0.0
 11
-27.52213923928964
 21
82.380997603332
 31
0.0
  0
LINE
  5
2B7
102
{ACAD_REACTORS
330
3DD
102
}
330
1F
100
AcDbEntity
  8
1
  6
Continuous
 62
     2
100
AcDbLine
 10
-27.52213923928964
 20
82.1976642699987
 30
0.0
 11
-27.79713923928964
 21
82.1976642699987
 31
0.0
  0
LINE
  5
2B8
102
{ACAD_REACTORS
330
3DD
102
}
330
1F
100
AcDbEntity
  8
1
  6
Continuous
 62
     2
100
AcDbLine
 10
-27.79713923928964
 20
82.1976642699987
 30
0.0
 11
-27.79713923928964
 21
81.78185598314357
 31
0.0
  0
LINE
  5
2B9
102
{ACAD_REACTORS
330
3DD
102
}
330
1F
100
AcDbEntity
  8
1
  6
Continuous
 62
     2
100
AcDbLine
 10
-27.79713923928964
 20
81.78185598314357
 30
0.0
 11
-27.56794713085952
 21
81.91408219954559
 31
0.0
  0
LINE
  5
2BA
102
{ACAD_REACTORS
330
3DD
102
}
330
1F
100
AcDbEntity
  8
1
  6
Continuous
 62
     2
100
AcDbLine
 10
-27.47633134771977
 20
81.75528150876998
 30
0.0
 11
-27.84299801438645
 21
81.54374304723152
 31
0.0
  0
LINE
  5
2BB
102
{ACAD_REACTORS
330
3DD
102
}
330
1F
100
AcDbEntity
  8
1
  6
Continuous
 62
     2
100
AcDbLine
 10
-27.98047257262297
 20
81.62314339261934
 30
0.0
 11
-27.98047257262297
 21
82.95551848071142
 31
0.0
  0
ARC
  5
2BC
330
1F
100
AcDbEntity
  8
1
  6
Continuous
 62
     7
100
AcDbCircle
 10
-19.48421678783673
 20
80.69294004327394
 30
0.0
 40
5.601666666668557
100
AcDbArc
 50
330.0098417416594
 51
29.99015825834061
  0
ARC
  5
2BD
330
1F
100
AcDbEntity
  8
1
  6
Continuous
 62
     7
100
AcDbCircle
 10
-64.0327095258527
 20
30.77460670994246
 30
0.0
 40
5.60166666666855
100
AcDbArc
 50
240.0098417416593
 51
299.9901582583407
  0
ARC
  5
2BE
102
{ACAD_REACTORS
330
3D7
102
}
330
1F
100
AcDbEntity
  8
1
  6
Continuous
 62
     7
100
AcDbCircle
 10
-9.86269988272437
 20
7.86560865601728
 30
0.0
 40
0.1324831062376642
100
AcDbArc
 50
30.00000000001384
 51
180.0
  0
ARC
  5
2BF
102
{ACAD_REACTORS
330
3D7
102
}
330
1F
100
AcDbEntity
  8
1
  6
Continuous
 62
     7
100
AcDbCircle
 10
-9.82851632229534
 20
5.42379253631645
 30
0.0
 40
0.1666666666666856
100
AcDbArc
 50
180.0
 51
0.0
  0
ARC
  5
2C0
102
{ACAD_REACTORS
330
3D7
102
}
330
1F
100
AcDbEntity
  8
1
  6
Continuous
 62
     7
100
AcDbCircle
 10
-8.49518298896197
 20
4.6541345353009
 30
0.0
 40
0.1666666666666856
100
AcDbArc
 50
180.0
 51
0.0
  0
ARC
  5
2C1
102
{ACAD_REACTORS
330
3D7
102
}
330
1F
100
AcDbEntity
  8
1
  6
Continuous
 62
     7
100
AcDbCircle
 10
-8.460999428533
 20
7.86560865601728
 30
0.0
 40
0.1324831062376557
100
AcDbArc
 50
0.0
 51
149.9999999999743
  0
ARC
  5
2C2
102
{ACAD_REACTORS
330
3D8
102
}
330
1F
100
AcDbEntity
  8
1
  6
Continuous
 62
     7
100
AcDbCircle
 10
-10.49518298896203
 20
7.46125008008369
 30
0.0
 40
0.1666666666666909
100
AcDbArc
 50
0.0
 51
180.0
  0
ARC
  5
2C3
102
{ACAD_REACTORS
330
3D8
102
}
330
1F
100
AcDbEntity
  8
1
  6
Continuous
 62
     7
100
AcDbCircle
 10
-9.32851632229534
 20
4.36567299683935
 30
0.0
 40
0.1666666666666837
100
AcDbArc
 50
240.0183606311504
 51
60.01836063114937
  0
ARC
  5
2C4
102
{ACAD_REACTORS
330
3D6
102
}
330
1F
100
AcDbEntity
  8
1
  6
Continuous
 62
     7
100
AcDbCircle
 10
-11.16184965562866
 20
7.07663469546833
 30
0.0
 40
0.1666666666666305
100
AcDbArc
 50
0.0
 51
180.0
  0
ARC
  5
2C5
102
{ACAD_REACTORS
330
3D6
102
}
330
1F
100
AcDbEntity
  8
1
  6
Continuous
 62
     7
100
AcDbCircle
 10
-11.16184965562866
 20
5.42336530453161
 30
0.0
 40
0.1666666666666785
100
AcDbArc
 50
180.0
 51
0.0
  0
ARC
  5
2C6
102
{ACAD_REACTORS
330
3D9
102
}
330
1F
100
AcDbEntity
  8
1
  6
Continuous
 62
     7
100
AcDbCircle
 10
-7.16184965562865
 20
7.07663469546833
 30
0.0
 40
0.1666666666666886
100
AcDbArc
 50
240.0183606311493
 51
60.01836063115717
  0
ARC
  5
2C7
102
{ACAD_REACTORS
330
3D9
102
}
330
1F
100
AcDbEntity
  8
1
  6
Continuous
 62
     7
100
AcDbCircle
 10
-7.16184965562865
 20
6.25
 30
0.0
 40
0.1666666666666847
100
AcDbArc
 50
270.0
 51
90.0
  0
ARC
  5
2C8
102
{ACAD_REACTORS
330
3D9
102
}
330
1F
100
AcDbEntity
  8
1
  6
Continuous
 62
     7
100
AcDbCircle
 10
-7.16184965562865
 20
5.42336530453161
 30
0.0
 40
0.1666666666666572
100
AcDbArc
 50
299.9816393688326
 51
119.9816393688413
  0
ARC
  5
2C9
330
1F
100
AcDbEntity
  8
1
  6
Continuous
 62
     7
100
AcDbCircle
 10
-64.03270952585271
 20
80.69294004327394
 30
0.0
 40
2.749999999999982
100
AcDbArc
 50
135.0
 51
314.9999999999996
  0
ARC
  5
2CA
330
1F
100
AcDbEntity
  8
1
  6
Continuous
 62
     7
100
AcDbCircle
 10
-64.03270952585271
 20
80.69294004327394
 30
0.0
 40
2.750000000000002
100
AcDbArc
 50
314.9999999999996
 51
135.0
  0
ARC
  5
2CB
330
1F
100
AcDbEntity
  8
0
  6
Continuous
 62
     7
100
AcDbCircle
 10
-16.03255012116817
 20
64.39294004327391
 30
0.0
 40
0.2000000000000028
100
AcDbArc
 50
270.0
 51
0.0
  0
ARC
  5
2CC
330
1F
100
AcDbEntity
  8
0
  6
Continuous
 62
     7
100
AcDbCircle
 10
-17.58255012116824
 20
60.09294004327391
 30
0.0
 40
0.2000000000000099
100
AcDbArc
 50
270.0
 51
0.0
  0
ARC
  5
2CD
330
1F
100
AcDbEntity
  8
0
  6
Continuous
 62
     7
100
AcDbCircle
 10
-22.58255012116818
 20
60.09294004327391
 30
0.0
 40
0.1999999999999922
100
AcDbArc
 50
180.0
 51
270.0
  0
ARC
  5
2CE
330
1F
100
AcDbEntity
  8
0
  6
Continuous
 62
     7
100
AcDbCircle
 10
-26.63255012116817
 20
64.39294004327391
 30
0.0
 40
0.2000000000000099
100
AcDbArc
 50
179.9999999999959
 51
270.0
  0
ARC
  5
2CF
330
1F
100
AcDbEntity
  8
0
  6
Continuous
 62
     7
100
AcDbCircle
 10
-17.33255012116818
 20
99.7929400432739
 30
0.0
 40
0.1999999999999886
100
AcDbArc
 50
0.0
 51
90.0
  0
ARC
  5
2D0
330
1F
100
AcDbEntity
  8
0
  6
Continuous
 62
     7
100
AcDbCircle
 10
-21.28255012116817
 20
99.7929400432739
 30
0.0
 40
0.2000000000000028
100
AcDbArc
 50
90.0
 51
180.0
  0
ARC
  5
2D1
330
1F
100
AcDbEntity
  8
0
  6
Continuous
 62
     7
100
AcDbCircle
 10
-25.78255012116817
 20
99.7929400432739
 30
0.0
 40
0.2000000000000028
100
AcDbArc
 50
90.0
 51
180.0
  0
ARC
  5
2D2
330
1F
100
AcDbEntity
  8
0
  6
Continuous
 62
     7
100
AcDbCircle
 10
-30.28255012116819
 20
99.7929400432739
 30
0.0
 40
0.2000000000000028
100
AcDbArc
 50
90.0
 51
180.0
  0
ARC
  5
2D3
330
1F
100
AcDbEntity
  8
0
  6
Continuous
 62
     7
100
AcDbCircle
 10
-30.88255012116817
 20
99.7929400432739
 30
0.0
 40
0.1999999999999886
100
AcDbArc
 50
0.0
 51
90.0
  0
ARC
  5
2D4
330
1F
100
AcDbEntity
  8
0
  6
Continuous
 62
     7
100
AcDbCircle
 10
-26.38255012116817
 20
99.7929400432739
 30
0.0
 40
0.1999999999999886
100
AcDbArc
 50
0.0
 51
90.0
  0
ARC
  5
2D5
330
1F
100
AcDbEntity
  8
0
  6
Continuous
 62
     7
100
AcDbCircle
 10
-21.88255012116817
 20
99.7929400432739
 30
0.0
 40
0.1999999999999886
100
AcDbArc
 50
0.0
 51
90.0
  0
ARC
  5
2D6
330
1F
100
AcDbEntity
  8
0
  6
Continuous
 62
     7
100
AcDbCircle
 10
-34.83255012116818
 20
99.7929400432739
 30
0.0
 40
0.2000000000000028
100
AcDbArc
 50
90.0
 51
180.0
  0
ARC
  5
2D7
330
1F
100
AcDbEntity
  8
0
  6
Continuous
 62
     7
100
AcDbCircle
 10
-64.03270952585284
 20
31.52294004327392
 30
0.0
 40
0.6500000000000048
100
AcDbArc
 50
278.9892993451627
 51
351.0107006548371
  0
ARC
  5
2D8
330
1F
100
AcDbEntity
  8
0
  6
Continuous
 62
     7
100
AcDbCircle
 10
-64.03270952585284
 20
31.52294004327392
 30
0.0
 40
1.054145188432737
100
AcDbArc
 50
188.9892993451636
 51
261.0107006548373
  0
ARC
  5
2D9
330
1F
100
AcDbEntity
  8
0
  6
Continuous
 62
     7
100
AcDbCircle
 10
-64.03270952585284
 20
31.52294004327392
 30
0.0
 40
1.330558244986667
100
AcDbArc
 50
188.989299345163
 51
261.010700654837
  0
ARC
  5
2DA
330
1F
100
AcDbEntity
  8
0
  6
Continuous
 62
     7
100
AcDbCircle
 10
-64.03270952585284
 20
31.52294004327392
 30
0.0
 40
0.6500000000000083
100
AcDbArc
 50
98.98929934516269
 51
171.0107006548371
  0
ARC
  5
2DB
330
1F
100
AcDbEntity
  8
0
  6
Continuous
 62
     7
100
AcDbCircle
 10
-64.03270952585284
 20
31.52294004327392
 30
0.0
 40
0.8499999999999925
100
AcDbArc
 50
171.0107006548371
 51
188.9892993451629
  0
ARC
  5
2DC
330
1F
100
AcDbEntity
  8
0
  6
Continuous
 62
     7
100
AcDbCircle
 10
-64.03270952585284
 20
31.52294004327392
 30
0.0
 40
0.8500000000000065
100
AcDbArc
 50
351.0107006548373
 51
8.98929934516274
  0
ARC
  5
2DD
330
1F
100
AcDbEntity
  8
0
  6
Continuous
 62
     7
100
AcDbCircle
 10
-64.03270952585284
 20
31.52294004327392
 30
0.0
 40
0.6499999999999942
100
AcDbArc
 50
8.98929934516289
 51
81.01070065483731
  0
ARC
  5
2DE
330
1F
100
AcDbEntity
  8
0
  6
Continuous
 62
     7
100
AcDbCircle
 10
-64.03270952585284
 20
31.52294004327392
 30
0.0
 40
1.054145188432755
100
AcDbArc
 50
98.98929934516254
 51
171.0107006548375
  0
ARC
  5
2DF
330
1F
100
AcDbEntity
  8
0
  6
Continuous
 62
     7
100
AcDbCircle
 10
-64.03270952585284
 20
31.52294004327392
 30
0.0
 40
1.330558244986667
100
AcDbArc
 50
98.98929934516302
 51
171.0107006548374
  0
ARC
  5
2E0
330
1F
100
AcDbEntity
  8
0
  6
Continuous
 62
     7
100
AcDbCircle
 10
-64.03270952585284
 20
31.52294004327392
 30
0.0
 40
1.054145188432733
100
AcDbArc
 50
278.9892993451624
 51
351.0107006548365
  0
ARC
  5
2E1
330
1F
100
AcDbEntity
  8
0
  6
Continuous
 62
     7
100
AcDbCircle
 10
-64.03270952585284
 20
31.52294004327392
 30
0.0
 40
1.054145188432748
100
AcDbArc
 50
8.98929934516239
 51
81.01070065483786
  0
ARC
  5
2E2
330
1F
100
AcDbEntity
  8
0
  6
Continuous
 62
     7
100
AcDbCircle
 10
-64.03270952585284
 20
31.52294004327392
 30
0.0
 40
0.6499999999999942
100
AcDbArc
 50
188.9892993451629
 51
261.0107006548373
  0
ARC
  5
2E3
330
1F
100
AcDbEntity
  8
0
  6
Continuous
 62
     7
100
AcDbCircle
 10
-64.03270952585284
 20
31.52294004327392
 30
0.0
 40
1.330558244986665
100
AcDbArc
 50
8.98929934516256
 51
81.0107006548373
  0
ARC
  5
2E4
330
1F
100
AcDbEntity
  8
0
  6
Continuous
 62
     7
100
AcDbCircle
 10
-64.03270952585284
 20
31.52294004327392
 30
0.0
 40
0.8500000000000065
100
AcDbArc
 50
81.01070065483725
 51
98.98929934516273
  0
ARC
  5
2E5
330
1F
100
AcDbEntity
  8
0
  6
Continuous
 62
     7
100
AcDbCircle
 10
-64.03270952585284
 20
31.52294004327392
 30
0.0
 40
0.849999999999989
100
AcDbArc
 50
261.010700654837
 51
278.9892993451629
  0
ARC
  5
2E6
330
1F
100
AcDbEntity
  8
0
  6
Continuous
 62
     7
100
AcDbCircle
 10
-64.03270952585284
 20
31.52294004327392
 30
0.0
 40
1.330558244986665
100
AcDbArc
 50
278.9892993451627
 51
351.010700654837
  0
ARC
  5
2E7
330
1F
100
AcDbEntity
  8
0
  6
Continuous
 62
     7
100
AcDbCircle
 10
-59.83270952585269
 20
29.8229400432739
 30
0.0
 40
0.1999999999999993
100
AcDbArc
 50
270.0
 51
0.0
  0
ARC
  5
2E8
330
1F
100
AcDbEntity
  8
0
  6
Continuous
 62
     7
100
AcDbCircle
 10
-71.5327095258527
 20
29.8729400432739
 30
0.0
 40
3.0
100
AcDbArc
 50
180.0
 51
270.0
  0
ARC
  5
2E9
330
1F
100
AcDbEntity
  8
0
  6
Continuous
 62
     7
100
AcDbCircle
 10
-71.08270952585269
 20
30.3229400432739
 30
0.0
 40
1.900000000000006
100
AcDbArc
 50
180.0
 51
270.0
  0
ARC
  5
2EA
330
1F
100
AcDbEntity
  8
0
  6
Continuous
 62
     7
100
AcDbCircle
 10
-57.28270952585268
 20
30.6229400432739
 30
0.0
 40
2.350000000000009
100
AcDbArc
 50
90.00000000000053
 51
180.0
  0
ARC
  5
2EB
330
1F
100
AcDbEntity
  8
0
  6
Continuous
 62
     7
100
AcDbCircle
 10
-70.7827095258527
 20
30.6229400432739
 30
0.0
 40
2.150000000000002
100
AcDbArc
 50
358.8337692740528
 51
90.0
  0
ARC
  5
2EC
330
1F
100
AcDbEntity
  8
0
  6
Continuous
 62
     7
100
AcDbCircle
 10
-71.5327095258527
 20
44.8729400432739
 30
0.0
 40
3.0
100
AcDbArc
 50
90.0
 51
180.0
  0
ARC
  5
2ED
330
1F
100
AcDbEntity
  8
0
  6
Continuous
 62
     7
100
AcDbCircle
 10
-71.08270952585269
 20
44.42294004327391
 30
0.0
 40
1.899999999999991
100
AcDbArc
 50
90.0
 51
180.0
  0
ARC
  5
2EE
330
1F
100
AcDbEntity
  8
0
  6
Continuous
 62
     7
100
AcDbCircle
 10
-57.28270952585268
 20
39.6229400432739
 30
0.0
 40
2.350000000000001
100
AcDbArc
 50
180.0
 51
269.9999999999995
  0
ARC
  5
2EF
330
1F
100
AcDbEntity
  8
0
  6
Continuous
 62
     7
100
AcDbCircle
 10
-66.2827095258527
 20
39.6229400432739
 30
0.0
 40
2.350000000000009
100
AcDbArc
 50
90.0
 51
180.0
  0
ARC
  5
2F0
330
1F
100
AcDbEntity
  8
0
  6
Continuous
 62
     7
100
AcDbCircle
 10
-66.2827095258527
 20
39.6229400432739
 30
0.0
 40
2.349999999999973
100
AcDbArc
 50
0.0
 51
90.0
  0
ARC
  5
2F1
330
1F
100
AcDbEntity
  8
0
  6
Continuous
 62
     7
100
AcDbCircle
 10
-61.7827095258527
 20
44.1229400432739
 30
0.0
 40
2.350000000000009
100
AcDbArc
 50
270.0
 51
0.0
  0
ARC
  5
2F2
330
1F
100
AcDbEntity
  8
0
  6
Continuous
 62
     7
100
AcDbCircle
 10
-70.78270952585247
 20
39.6229400432739
 30
0.0
 40
2.149999999999991
100
AcDbArc
 50
269.9999999999966
 51
90.00000000000608
  0
ARC
  5
2F3
330
1F
100
AcDbEntity
  8
0
  6
Continuous
 62
     7
100
AcDbCircle
 10
-57.28270952585268
 20
39.6229400432739
 30
0.0
 40
2.350000000000009
100
AcDbArc
 50
90.00000000000053
 51
180.0
  0
ARC
  5
2F4
330
1F
100
AcDbEntity
  8
0
  6
Continuous
 62
     7
100
AcDbCircle
 10
-57.2827095258527
 20
44.1229400432739
 30
0.0
 40
2.15000000000002
100
AcDbArc
 50
180.0
 51
270.0
  0
ARC
  5
2F5
330
1F
100
AcDbEntity
  8
0
  6
Continuous
 62
     7
100
AcDbCircle
 10
-66.2827095258527
 20
44.1229400432739
 30
0.0
 40
2.15000000000002
100
AcDbArc
 50
180.0
 51
0.0
  0
ARC
  5
2F6
330
1F
100
AcDbEntity
  8
0
  6
Continuous
 62
     7
100
AcDbCircle
 10
-70.7827095258527
 20
44.1229400432739
 30
0.0
 40
2.350000000000009
100
AcDbArc
 50
270.0
 51
0.0
  0
ARC
  5
2F7
330
1F
100
AcDbEntity
  8
0
  6
Continuous
 62
     7
100
AcDbCircle
 10
-61.7827095258527
 20
44.1229400432739
 30
0.0
 40
2.349999999999973
100
AcDbArc
 50
180.0
 51
270.0
  0
ARC
  5
2F8
330
1F
100
AcDbEntity
  8
0
  6
Continuous
 62
     7
100
AcDbCircle
 10
-66.2827095258527
 20
39.6229400432739
 30
0.0
 40
2.34999999999998
100
AcDbArc
 50
180.0
 51
0.0
  0
ARC
  5
2F9
330
1F
100
AcDbEntity
  8
0
  6
Continuous
 62
     7
100
AcDbCircle
 10
-56.5327095258527
 20
44.8729400432739
 30
0.0
 40
3.0
100
AcDbArc
 50
0.0
 51
90.0
  0
ARC
  5
2FA
330
1F
100
AcDbEntity
  8
0
  6
Continuous
 62
     7
100
AcDbCircle
 10
-56.9827095258527
 20
44.42294004327391
 30
0.0
 40
1.900000000000006
100
AcDbArc
 50
0.0
 51
90.0
  0
ARC
  5
2FB
330
1F
100
AcDbEntity
  8
0
  6
Continuous
 62
     7
100
AcDbCircle
 10
-57.2827095258527
 20
35.1229400432739
 30
0.0
 40
2.149999999999991
100
AcDbArc
 50
90.0
 51
270.0
  0
ARC
  5
2FC
330
1F
100
AcDbEntity
  8
0
  6
Continuous
 62
     7
100
AcDbCircle
 10
-70.78270952585247
 20
35.1229400432739
 30
0.0
 40
2.350000000000009
100
AcDbArc
 50
269.9999999999944
 51
90.00000000000311
  0
ARC
  5
2FD
330
1F
100
AcDbEntity
  8
0
  6
Continuous
 62
     7
100
AcDbCircle
 10
-56.9827095258527
 20
30.3229400432739
 30
0.0
 40
1.899999999999999
100
AcDbArc
 50
270.0
 51
0.0
  0
ARC
  5
2FE
330
1F
100
AcDbEntity
  8
0
  6
Continuous
 62
     7
100
AcDbCircle
 10
-56.5327095258527
 20
29.8729400432739
 30
0.0
 40
3.0
100
AcDbArc
 50
270.0
 51
0.0
  0
ARC
  5
2FF
330
1F
100
AcDbEntity
  8
0
  6
Continuous
 62
     7
100
AcDbCircle
 10
-71.5327095258527
 20
121.0729400432739
 30
0.0
 40
3.0
100
AcDbArc
 50
180.0
 51
270.0
  0
ARC
  5
300
330
1F
100
AcDbEntity
  8
0
  6
Continuous
 62
     7
100
AcDbCircle
 10
-71.5327095258527
 20
121.0729400432739
 30
0.0
 40
2.750000000000014
100
AcDbArc
 50
180.0
 51
269.9999999999997
  0
ARC
  5
301
330
1F
100
AcDbEntity
  8
0
  6
Continuous
 62
     7
100
AcDbCircle
 10
-57.28270952585268
 20
126.3229400432739
 30
0.0
 40
1.949999999999985
100
AcDbArc
 50
50.28486276817433
 51
90.00000000000064
  0
ARC
  5
302
330
1F
100
AcDbEntity
  8
0
  6
Continuous
 62
     7
100
AcDbCircle
 10
-57.28270952585268
 20
126.3229400432739
 30
0.0
 40
1.950000000000003
100
AcDbArc
 50
90.00000000000064
 51
50.28486276817433
  0
ARC
  5
303
330
1F
100
AcDbEntity
  8
0
  6
Continuous
 62
     7
100
AcDbCircle
 10
-71.5327095258527
 20
136.0729400432739
 30
0.0
 40
3.0
100
AcDbArc
 50
90.0
 51
180.0
  0
ARC
  5
304
330
1F
100
AcDbEntity
  8
0
  6
Continuous
 62
     7
100
AcDbCircle
 10
-71.5327095258527
 20
136.0729400432739
 30
0.0
 40
2.75
100
AcDbArc
 50
90.0000000000003
 51
180.0
  0
ARC
  5
305
330
1F
100
AcDbEntity
  8
0
  6
Continuous
 62
     7
100
AcDbCircle
 10
-56.53270952585271
 20
121.0729400432739
 30
0.0
 40
2.75
100
AcDbArc
 50
270.0
 51
0.0
  0
ARC
  5
306
330
1F
100
AcDbEntity
  8
0
  6
Continuous
 62
     7
100
AcDbCircle
 10
-56.53270952585271
 20
136.0729400432739
 30
0.0
 40
2.75
100
AcDbArc
 50
0.0
 51
90.0
  0
ARC
  5
307
330
1F
100
AcDbEntity
  8
0
  6
Continuous
 62
     7
100
AcDbCircle
 10
-56.53270952585271
 20
136.0729400432739
 30
0.0
 40
3.000000000000007
100
AcDbArc
 50
0.0
 51
89.99999999999987
  0
ARC
  5
308
330
1F
100
AcDbEntity
  8
0
  6
Continuous
 62
     7
100
AcDbCircle
 10
-56.53270952585271
 20
121.0729400432739
 30
0.0
 40
3.0
100
AcDbArc
 50
270.0000000000001
 51
0.0
  0
ARC
  5
309
330
1F
100
AcDbEntity
  8
0
  6
Continuous
 62
     7
100
AcDbCircle
 10
-70.78270952585247
 20
126.3229400432739
 30
0.0
 40
1.950000000000003
100
AcDbArc
 50
90.00000000000793
 51
129.7151372318323
  0
ARC
  5
30A
330
1F
100
AcDbEntity
  8
0
  6
Continuous
 62
     7
100
AcDbCircle
 10
-70.78270952585247
 20
126.3229400432739
 30
0.0
 40
1.950000000000171
100
AcDbArc
 50
129.7151372318323
 51
90.00000000000793
  0
ARC
  5
30B
330
1F
100
AcDbEntity
  8
0
  6
Continuous
 62
     7
100
AcDbCircle
 10
-62.08270952585271
 20
134.4229400432739
 30
0.0
 40
0.2999999999999868
100
AcDbArc
 50
123.8963552030278
 51
236.1036447969752
  0
ARC
  5
30C
330
1F
100
AcDbEntity
  8
0
  6
Continuous
 62
     7
100
AcDbCircle
 10
-65.9827095258527
 20
134.4229400432739
 30
0.0
 40
0.3000000000000064
100
AcDbArc
 50
303.8963552030236
 51
56.10364479697334
  0
ARC
  5
30D
330
1F
100
AcDbEntity
  8
0
  6
Continuous
 62
     7
100
AcDbCircle
 10
-62.2327095258527
 20
132.0729400432739
 30
0.0
 40
0.2000000000000242
100
AcDbArc
 50
180.0
 51
270.0
  0
ARC
  5
30E
330
1F
100
AcDbEntity
  8
0
  6
Continuous
 62
     7
100
AcDbCircle
 10
-65.83270952585272
 20
132.0729400432739
 30
0.0
 40
0.1999999999999886
100
AcDbArc
 50
270.0
 51
0.0
  0
ARC
  5
30F
330
1F
100
AcDbEntity
  8
0
  6
Continuous
 62
     7
100
AcDbCircle
 10
-64.03270952585271
 20
134.4229400432739
 30
0.0
 40
1.800000000000009
100
AcDbArc
 50
277.9518754306592
 51
352.0481245693406
  0
ARC
  5
310
330
1F
100
AcDbEntity
  8
0
  6
Continuous
 62
     7
100
AcDbCircle
 10
-64.03270952585271
 20
132.4729400432739
 30
0.0
 40
0.3000000000000164
100
AcDbArc
 50
33.89635520302889
 51
146.1036447969688
  0
ARC
  5
311
330
1F
100
AcDbEntity
  8
0
  6
Continuous
 62
     7
100
AcDbCircle
 10
-64.03270952585271
 20
134.4229400432739
 30
0.0
 40
1.80000000000001
100
AcDbArc
 50
187.9518754306594
 51
262.0481245693415
  0
ARC
  5
312
330
1F
100
AcDbEntity
  8
0
  6
Continuous
 62
     7
100
AcDbCircle
 10
-68.28270952585272
 20
128.7729400432739
 30
0.0
 40
0.5
100
AcDbArc
 50
270.0
 51
0.0
  0
ARC
  5
313
330
1F
100
AcDbEntity
  8
0
  6
Continuous
 62
     7
100
AcDbCircle
 10
-57.28270952585268
 20
126.3229400432739
 30
0.0
 40
1.949999999999985
100
AcDbArc
 50
50.28486276817433
 51
90.00000000000064
  0
ARC
  5
314
330
1F
100
AcDbEntity
  8
0
  6
Continuous
 62
     7
100
AcDbCircle
 10
-64.03270952585271
 20
136.3729400432739
 30
0.0
 40
0.2999999999999987
100
AcDbArc
 50
213.8963552030311
 51
326.1036447969711
  0
ARC
  5
315
330
1F
100
AcDbEntity
  8
0
  6
Continuous
 62
     7
100
AcDbCircle
 10
-64.03270952585271
 20
134.4229400432739
 30
0.0
 40
1.800000000000013
100
AcDbArc
 50
7.95187543065846
 51
82.0481245693407
  0
ARC
  5
316
330
1F
100
AcDbEntity
  8
0
  6
Continuous
 62
     7
100
AcDbCircle
 10
-64.03270952585271
 20
134.4229400432739
 30
0.0
 40
1.799999999999978
100
AcDbArc
 50
97.95187543065862
 51
172.0481245693415
  0
ARC
  5
317
330
1F
100
AcDbEntity
  8
0
  6
Continuous
 62
     7
100
AcDbCircle
 10
-64.03270952585271
 20
134.4229400432739
 30
0.0
 40
3.749999999999988
100
AcDbArc
 50
143.1301023541559
 51
180.0
  0
ARC
  5
318
330
1F
100
AcDbEntity
  8
0
  6
Continuous
 62
     7
100
AcDbCircle
 10
-71.5327095258527
 20
136.0729400432739
 30
0.0
 40
2.75
100
AcDbArc
 50
90.0000000000003
 51
180.0
  0
ARC
  5
319
330
1F
100
AcDbEntity
  8
0
  6
Continuous
 62
     7
100
AcDbCircle
 10
-64.03270952585271
 20
134.4229400432739
 30
0.0
 40
3.75
100
AcDbArc
 50
0.0
 51
36.86989764584396
  0
ARC
  5
31A
330
1F
100
AcDbEntity
  8
0
  6
Continuous
 62
     7
100
AcDbCircle
 10
-59.78270952585271
 20
128.7729400432739
 30
0.0
 40
0.5
100
AcDbArc
 50
180.0
 51
270.0
  0
ARC
  5
31B
330
1F
100
AcDbEntity
  8
0
  6
Continuous
 62
     7
100
AcDbCircle
 10
-56.53270952585271
 20
136.0729400432739
 30
0.0
 40
2.75
100
AcDbArc
 50
0.0
 51
90.0
  0
ARC
  5
31C
330
1F
100
AcDbEntity
  8
0
  6
Continuous
 62
     7
100
AcDbCircle
 10
-70.78270952585247
 20
126.3229400432739
 30
0.0
 40
1.950000000000003
100
AcDbArc
 50
90.00000000000793
 51
129.7151372318323
  0
ARC
  5
31D
330
1F
100
AcDbEntity
  8
0
  6
Continuous
 62
     7
100
AcDbCircle
 10
-53.9827095258527
 20
64.39294004327391
 30
0.0
 40
0.2000000000000028
100
AcDbArc
 50
270.0
 51
0.0
  0
ARC
  5
31E
330
1F
100
AcDbEntity
  8
0
  6
Continuous
 62
     7
100
AcDbCircle
 10
-60.4827095258527
 20
60.09294004327391
 30
0.0
 40
0.2000000000000099
100
AcDbArc
 50
270.0
 51
0.0
  0
ARC
  5
31F
330
1F
100
AcDbEntity
  8
0
  6
Continuous
 62
     7
100
AcDbCircle
 10
-59.68270952585263
 20
64.39294004327391
 30
0.0
 40
0.2000000000000028
100
AcDbArc
 50
270.0
 51
0.0
  0
ARC
  5
320
330
1F
100
AcDbEntity
  8
0
  6
Continuous
 62
     7
100
AcDbCircle
 10
-60.08270952585269
 20
63.9929400432739
 30
0.0
 40
0.2000000000000099
100
AcDbArc
 50
90.0
 51
180.0
  0
ARC
  5
321
330
1F
100
AcDbEntity
  8
0
  6
Continuous
 62
     7
100
AcDbCircle
 10
-61.2327095258527
 20
60.09294004327391
 30
0.0
 40
0.2000000000000099
100
AcDbArc
 50
270.0
 51
0.0
  0
ARC
  5
322
330
1F
100
AcDbEntity
  8
0
  6
Continuous
 62
     7
100
AcDbCircle
 10
-66.83270952585269
 20
60.09294004327391
 30
0.0
 40
0.2000000000000028
100
AcDbArc
 50
180.0000000002667
 51
270.0
  0
ARC
  5
323
330
1F
100
AcDbEntity
  8
0
  6
Continuous
 62
     7
100
AcDbCircle
 10
-74.08270952585269
 20
64.39294004327391
 30
0.0
 40
0.2000000000000171
100
AcDbArc
 50
180.0
 51
270.0
  0
ARC
  5
324
330
1F
100
AcDbEntity
  8
0
  6
Continuous
 62
     7
100
AcDbCircle
 10
-67.9827095258527
 20
63.9929400432739
 30
0.0
 40
0.1999999999999886
100
AcDbArc
 50
0.0
 51
90.0
  0
ARC
  5
325
330
1F
100
AcDbEntity
  8
0
  6
Continuous
 62
     7
100
AcDbCircle
 10
-67.58270952585269
 20
60.09294004327391
 30
0.0
 40
0.2000000000000171
100
AcDbArc
 50
180.0
 51
270.0
  0
ARC
  5
326
330
1F
100
AcDbEntity
  8
0
  6
Continuous
 62
     7
100
AcDbCircle
 10
-68.38270952585273
 20
64.39294004327391
 30
0.0
 40
0.2000000000000028
100
AcDbArc
 50
180.0
 51
270.0
  0
ARC
  5
327
330
1F
100
AcDbEntity
  8
0
  6
Continuous
 62
     7
100
AcDbCircle
 10
-68.83315489195988
 20
99.7929400432739
 30
0.0
 40
0.2000000000000028
100
AcDbArc
 50
0.0
 51
90.0
  0
ARC
  5
328
330
1F
100
AcDbEntity
  8
0
  6
Continuous
 62
     7
100
AcDbCircle
 10
-72.7827095258527
 20
99.7929400432739
 30
0.0
 40
0.2000000000000028
100
AcDbArc
 50
90.0
 51
180.0
  0
ARC
  5
329
330
1F
100
AcDbEntity
  8
0
  6
Continuous
 62
     7
100
AcDbCircle
 10
-68.2327095258527
 20
99.7929400432739
 30
0.0
 40
0.2000000000000028
100
AcDbArc
 50
90.0
 51
180.0
  0
ARC
  5
32A
330
1F
100
AcDbEntity
  8
0
  6
Continuous
 62
     7
100
AcDbCircle
 10
-68.83270952585269
 20
99.7929400432739
 30
0.0
 40
0.2000000000000171
100
AcDbArc
 50
0.0
 51
90.0
  0
ARC
  5
32B
330
1F
100
AcDbEntity
  8
0
  6
Continuous
 62
     7
100
AcDbCircle
 10
-64.33270952585269
 20
99.7929400432739
 30
0.0
 40
0.2000000000000171
100
AcDbArc
 50
0.0
 51
90.0
  0
ARC
  5
32C
330
1F
100
AcDbEntity
  8
0
  6
Continuous
 62
     7
100
AcDbCircle
 10
-68.3327095258527
 20
97.4929400432739
 30
0.0
 40
0.2000000000000028
100
AcDbArc
 50
0.0
 51
90.0
  0
ARC
  5
32D
330
1F
100
AcDbEntity
  8
0
  6
Continuous
 62
     7
100
AcDbCircle
 10
-65.93270952585272
 20
97.4929400432739
 30
0.0
 40
0.2000000000000028
100
AcDbArc
 50
90.0
 51
180.0
  0
ARC
  5
32E
330
1F
100
AcDbEntity
  8
0
  6
Continuous
 62
     7
100
AcDbCircle
 10
-62.13270952585272
 20
97.4929400432739
 30
0.0
 40
0.1999999999999957
100
AcDbArc
 50
0.0
 51
90.0
  0
ARC
  5
32F
330
1F
100
AcDbEntity
  8
0
  6
Continuous
 62
     7
100
AcDbCircle
 10
-63.7327095258527
 20
99.7929400432739
 30
0.0
 40
0.2000000000000028
100
AcDbArc
 50
90.0
 51
180.0
  0
ARC
  5
330
330
1F
100
AcDbEntity
  8
0
  6
Continuous
 62
     7
100
AcDbCircle
 10
-55.2827095258527
 20
99.7929400432739
 30
0.0
 40
0.2000000000000099
100
AcDbArc
 50
0.0
 51
90.0
  0
ARC
  5
331
330
1F
100
AcDbEntity
  8
0
  6
Continuous
 62
     7
100
AcDbCircle
 10
-59.83270952585269
 20
99.7929400432739
 30
0.0
 40
0.2000000000000099
100
AcDbArc
 50
0.0
 51
90.0
  0
ARC
  5
332
330
1F
100
AcDbEntity
  8
0
  6
Continuous
 62
     7
100
AcDbCircle
 10
-59.2327095258527
 20
99.7929400432739
 30
0.0
 40
0.2000000000000028
100
AcDbArc
 50
90.0
 51
180.0
  0
ARC
  5
333
330
1F
100
AcDbEntity
  8
1
  6
Continuous
 62
     7
100
AcDbCircle
 10
-64.0327095258527
 20
135.1712733766054
 30
0.0
 40
5.601666666668498
100
AcDbArc
 50
60.00984174165905
 51
119.990158258341
  0
ARC
  5
334
102
{ACAD_REACTORS
330
3DC
102
}
330
1F
100
AcDbEntity
  8
1
  6
Continuous
 62
     2
100
AcDbCircle
 10
-29.00760686419228
 20
83.1779156974749
 30
0.0
 40
0.0728657084307132
100
AcDbArc
 50
29.99999999997993
 51
180.0
  0
ARC
  5
335
102
{ACAD_REACTORS
330
3DC
102
}
330
1F
100
AcDbEntity
  8
1
  6
Continuous
 62
     2
100
AcDbCircle
 10
-28.98880590595627
 20
81.83491683163945
 30
0.0
 40
0.0916666666667005
100
AcDbArc
 50
180.0
 51
0.0
  0
ARC
  5
336
102
{ACAD_REACTORS
330
3DC
102
}
330
1F
100
AcDbEntity
  8
1
  6
Continuous
 62
     2
100
AcDbCircle
 10
-28.25547257262296
 20
81.41160493108086
 30
0.0
 40
0.0916666666666792
100
AcDbArc
 50
180.0
 51
0.0
  0
ARC
  5
337
102
{ACAD_REACTORS
330
3DC
102
}
330
1F
100
AcDbEntity
  8
1
  6
Continuous
 62
     2
100
AcDbCircle
 10
-28.23667161438701
 20
83.1779156974749
 30
0.0
 40
0.07286570843074
100
AcDbArc
 50
0.0
 51
150.0000000000201
  0
ARC
  5
338
102
{ACAD_REACTORS
330
3DB
102
}
330
1F
100
AcDbEntity
  8
1
  6
Continuous
 62
     2
100
AcDbCircle
 10
-29.35547257262297
 20
82.95551848071142
 30
0.0
 40
0.0916666666666401
100
AcDbArc
 50
0.0
 51
180.0
  0
ARC
  5
339
102
{ACAD_REACTORS
330
3DB
102
}
330
1F
100
AcDbEntity
  8
1
  6
Continuous
 62
     2
100
AcDbCircle
 10
-28.71380590595627
 20
81.252951084927
 30
0.0
 40
0.0916666666666867
100
AcDbArc
 50
240.018360631121
 51
60.01836063118765
  0
ARC
  5
33A
102
{ACAD_REACTORS
330
3DA
102
}
330
1F
100
AcDbEntity
  8
1
  6
Continuous
 62
     2
100
AcDbCircle
 10
-29.72213923928965
 20
82.74398001917294
 30
0.0
 40
0.0916666666666899
100
AcDbArc
 50
0.0
 51
180.0
  0
ARC
  5
33B
102
{ACAD_REACTORS
330
3DA
102
}
330
1F
100
AcDbEntity
  8
1
  6
Continuous
 62
     2
100
AcDbCircle
 10
-29.72213923928965
 20
81.83468185415776
 30
0.0
 40
0.0916666666666899
100
AcDbArc
 50
180.0
 51
0.0
  0
ARC
  5
33C
102
{ACAD_REACTORS
330
3DD
102
}
330
1F
100
AcDbEntity
  8
1
  6
Continuous
 62
     2
100
AcDbCircle
 10
-27.52213923928964
 20
82.74398001917294
 30
0.0
 40
0.0916666666666495
100
AcDbArc
 50
240.0183606311435
 51
60.01836063115378
  0
ARC
  5
33D
102
{ACAD_REACTORS
330
3DD
102
}
330
1F
100
AcDbEntity
  8
1
  6
Continuous
 62
     2
100
AcDbCircle
 10
-27.52213923928964
 20
82.28933093666537
 30
0.0
 40
0.0916666666666686
100
AcDbArc
 50
270.0
 51
90.0
  0
ARC
  5
33E
102
{ACAD_REACTORS
330
3DD
102
}
330
1F
100
AcDbEntity
  8
1
  6
Continuous
 62
     2
100
AcDbCircle
 10
-27.52213923928964
 20
81.83468185415776
 30
0.0
 40
0.0916666666666565
100
AcDbArc
 50
299.9816393688462
 51
119.9816393688387
  0
CIRCLE
  5
33F
330
1F
100
AcDbEntity
  8
1
  6
Continuous
 62
     4
100
AcDbCircle
 10
-61.1344844961616
 20
132.7717413399517
 30
0.0
 40
0.6629557642160009
  0
CIRCLE
  5
340
330
1F
100
AcDbEntity
  8
1
  6
Continuous
 62
     4
100
AcDbCircle
 10
-61.43270952585245
 20
30.95817639455921
 30
0.0
 40
0.6629557642159511
  0
CIRCLE
  5
341
330
1F
100
AcDbEntity
  8
0
  6
Continuous
 62
     7
100
AcDbCircle
 10
-57.28270952585268
 20
30.6229400432739
 30
0.0
 40
1.300000000000004
  0
CIRCLE
  5
342
330
1F
100
AcDbEntity
  8
0
  6
Continuous
 62
     7
100
AcDbCircle
 10
-57.28270952585268
 20
30.6229400432739
 30
0.0
 40
1.550000000000011
  0
CIRCLE
  5
343
330
1F
100
AcDbEntity
  8
0
  6
Continuous
 62
     7
100
AcDbCircle
 10
-70.7827095258527
 20
30.6229400432739
 30
0.0
 40
1.300000000000225
  0
CIRCLE
  5
344
330
1F
100
AcDbEntity
  8
0
  6
Continuous
 62
     7
100
AcDbCircle
 10
-70.7827095258527
 20
30.6229400432739
 30
0.0
 40
1.549999999999997
  0
CIRCLE
  5
345
330
1F
100
AcDbEntity
  8
0
  6
Continuous
 62
     7
100
AcDbCircle
 10
-64.03270952585284
 20
31.52294004327392
 30
0.0
 40
1.399999999999878
  0
CIRCLE
  5
346
330
1F
100
AcDbEntity
  8
0
  6
Continuous
 62
     7
100
AcDbCircle
 10
-57.28270952585268
 20
39.6229400432739
 30
0.0
 40
1.300000000000004
  0
CIRCLE
  5
347
330
1F
100
AcDbEntity
  8
0
  6
Continuous
 62
     7
100
AcDbCircle
 10
-57.28270952585268
 20
39.6229400432739
 30
0.0
 40
1.550000000000011
  0
CIRCLE
  5
348
330
1F
100
AcDbEntity
  8
0
  6
Continuous
 62
     7
100
AcDbCircle
 10
-70.78270952585247
 20
39.6229400432739
 30
0.0
 40
1.299999999999997
  0
CIRCLE
  5
349
330
1F
100
AcDbEntity
  8
0
  6
Continuous
 62
     7
100
AcDbCircle
 10
-70.78270952585247
 20
39.6229400432739
 30
0.0
 40
1.550000000000225
  0
CIRCLE
  5
34A
330
1F
100
AcDbEntity
  8
0
  6
Continuous
 62
     7
100
AcDbCircle
 10
-61.7827095258527
 20
39.6229400432739
 30
0.0
 40
1.300000000000026
  0
CIRCLE
  5
34B
330
1F
100
AcDbEntity
  8
0
  6
Continuous
 62
     7
100
AcDbCircle
 10
-66.2827095258527
 20
39.6229400432739
 30
0.0
 40
1.300000000000225
  0
CIRCLE
  5
34C
330
1F
100
AcDbEntity
  8
0
  6
Continuous
 62
     7
100
AcDbCircle
 10
-66.2827095258527
 20
39.6229400432739
 30
0.0
 40
1.549999999999997
  0
CIRCLE
  5
34D
330
1F
100
AcDbEntity
  8
0
  6
Continuous
 62
     7
100
AcDbCircle
 10
-61.7827095258527
 20
39.6229400432739
 30
0.0
 40
1.54999999999999
  0
CIRCLE
  5
34E
330
1F
100
AcDbEntity
  8
0
  6
Continuous
 62
     7
100
AcDbCircle
 10
-70.7827095258527
 20
44.1229400432739
 30
0.0
 40
1.300000000000225
  0
CIRCLE
  5
34F
330
1F
100
AcDbEntity
  8
0
  6
Continuous
 62
     7
100
AcDbCircle
 10
-61.7827095258527
 20
44.1229400432739
 30
0.0
 40
1.300000000000026
  0
CIRCLE
  5
350
330
1F
100
AcDbEntity
  8
0
  6
Continuous
 62
     7
100
AcDbCircle
 10
-57.2827095258527
 20
44.1229400432739
 30
0.0
 40
1.300000000000026
  0
CIRCLE
  5
351
330
1F
100
AcDbEntity
  8
0
  6
Continuous
 62
     7
100
AcDbCircle
 10
-57.2827095258527
 20
44.1229400432739
 30
0.0
 40
1.54999999999999
  0
CIRCLE
  5
352
330
1F
100
AcDbEntity
  8
0
  6
Continuous
 62
     7
100
AcDbCircle
 10
-61.7827095258527
 20
44.1229400432739
 30
0.0
 40
1.54999999999999
  0
CIRCLE
  5
353
330
1F
100
AcDbEntity
  8
0
  6
Continuous
 62
     7
100
AcDbCircle
 10
-66.2827095258527
 20
44.1229400432739
 30
0.0
 40
1.549999999999997
  0
CIRCLE
  5
354
330
1F
100
AcDbEntity
  8
0
  6
Continuous
 62
     7
100
AcDbCircle
 10
-66.2827095258527
 20
44.1229400432739
 30
0.0
 40
1.300000000000225
  0
CIRCLE
  5
355
330
1F
100
AcDbEntity
  8
0
  6
Continuous
 62
     7
100
AcDbCircle
 10
-70.7827095258527
 20
44.1229400432739
 30
0.0
 40
1.549999999999997
  0
CIRCLE
  5
356
330
1F
100
AcDbEntity
  8
0
  6
Continuous
 62
     7
100
AcDbCircle
 10
-70.78270952585247
 20
35.1229400432739
 30
0.0
 40
1.299999999999997
  0
CIRCLE
  5
357
330
1F
100
AcDbEntity
  8
0
  6
Continuous
 62
     7
100
AcDbCircle
 10
-66.28270952585271
 20
35.5729400432739
 30
0.0
 40
1.299999999999997
  0
CIRCLE
  5
358
330
1F
100
AcDbEntity
  8
0
  6
Continuous
 62
     7
100
AcDbCircle
 10
-57.2827095258527
 20
35.1229400432739
 30
0.0
 40
1.54999999999999
  0
CIRCLE
  5
359
330
1F
100
AcDbEntity
  8
0
  6
Continuous
 62
     7
100
AcDbCircle
 10
-61.78270952585271
 20
35.5729400432739
 30
0.0
 40
1.299999999999997
  0
CIRCLE
  5
35A
330
1F
100
AcDbEntity
  8
0
  6
Continuous
 62
     7
100
AcDbCircle
 10
-57.2827095258527
 20
35.1229400432739
 30
0.0
 40
1.300000000000026
  0
CIRCLE
  5
35B
330
1F
100
AcDbEntity
  8
0
  6
Continuous
 62
     7
100
AcDbCircle
 10
-70.78270952585247
 20
35.1229400432739
 30
0.0
 40
1.550000000000225
  0
CIRCLE
  5
35C
330
1F
100
AcDbEntity
  8
0
  6
Continuous
 62
     7
100
AcDbCircle
 10
-66.28270952585247
 20
126.3229400432739
 30
0.0
 40
1.299999999999997
  0
CIRCLE
  5
35D
330
1F
100
AcDbEntity
  8
0
  6
Continuous
 62
     7
100
AcDbCircle
 10
-66.28270952585271
 20
130.3729400432739
 30
0.0
 40
1.299999999999997
  0
CIRCLE
  5
35E
330
1F
100
AcDbEntity
  8
0
  6
Continuous
 62
     7
100
AcDbCircle
 10
-66.28270952585247
 20
126.3229400432739
 30
0.0
 40
1.950000000000003
  0
CIRCLE
  5
35F
330
1F
100
AcDbEntity
  8
0
  6
Continuous
 62
     7
100
AcDbCircle
 10
-70.78270952585247
 20
121.8229400432739
 30
0.0
 40
1.299999999999997
  0
CIRCLE
  5
360
330
1F
100
AcDbEntity
  8
0
  6
Continuous
 62
     7
100
AcDbCircle
 10
-70.78270952585247
 20
121.8229400432739
 30
0.0
 40
1.950000000000003
  0
CIRCLE
  5
361
330
1F
100
AcDbEntity
  8
0
  6
Continuous
 62
     7
100
AcDbCircle
 10
-70.78270952585247
 20
130.8229400432739
 30
0.0
 40
1.299999999999997
  0
CIRCLE
  5
362
330
1F
100
AcDbEntity
  8
0
  6
Continuous
 62
     7
100
AcDbCircle
 10
-70.78270952585247
 20
130.8229400432739
 30
0.0
 40
1.950000000000003
  0
CIRCLE
  5
363
330
1F
100
AcDbEntity
  8
0
  6
Continuous
 62
     7
100
AcDbCircle
 10
-57.28270952585268
 20
135.3229400432739
 30
0.0
 40
1.300000000000004
  0
CIRCLE
  5
364
330
1F
100
AcDbEntity
  8
0
  6
Continuous
 62
     7
100
AcDbCircle
 10
-57.28270952585268
 20
135.3229400432739
 30
0.0
 40
1.949999999999996
  0
CIRCLE
  5
365
330
1F
100
AcDbEntity
  8
0
  6
Continuous
 62
     7
100
AcDbCircle
 10
-57.28270952585316
 20
130.8229400432739
 30
0.0
 40
1.94999999999952
  0
CIRCLE
  5
366
330
1F
100
AcDbEntity
  8
0
  6
Continuous
 62
     7
100
AcDbCircle
 10
-70.78270952585247
 20
135.3229400432739
 30
0.0
 40
1.299999999999997
  0
CIRCLE
  5
367
330
1F
100
AcDbEntity
  8
0
  6
Continuous
 62
     7
100
AcDbCircle
 10
-70.78270952585247
 20
135.3229400432739
 30
0.0
 40
1.950000000000003
  0
CIRCLE
  5
368
330
1F
100
AcDbEntity
  8
0
  6
Continuous
 62
     7
100
AcDbCircle
 10
-61.78270952585268
 20
126.3229400432739
 30
0.0
 40
1.300000000000004
  0
CIRCLE
  5
369
330
1F
100
AcDbEntity
  8
0
  6
Continuous
 62
     7
100
AcDbCircle
 10
-61.78270952585271
 20
130.3729400432739
 30
0.0
 40
1.299999999999997
  0
CIRCLE
  5
36A
330
1F
100
AcDbEntity
  8
0
  6
Continuous
 62
     7
100
AcDbCircle
 10
-61.78270952585268
 20
126.3229400432739
 30
0.0
 40
1.950000000000003
  0
CIRCLE
  5
36B
330
1F
100
AcDbEntity
  8
0
  6
Continuous
 62
     7
100
AcDbCircle
 10
-66.28270952585252
 20
121.8229400432739
 30
0.0
 40
1.300000000000054
  0
CIRCLE
  5
36C
330
1F
100
AcDbEntity
  8
0
  6
Continuous
 62
     7
100
AcDbCircle
 10
-66.28270952585252
 20
121.8229400432739
 30
0.0
 40
1.949999999999946
  0
CIRCLE
  5
36D
330
1F
100
AcDbEntity
  8
0
  6
Continuous
 62
     7
100
AcDbCircle
 10
-61.78270952585314
 20
121.8229400432739
 30
0.0
 40
1.300000000000466
  0
CIRCLE
  5
36E
330
1F
100
AcDbEntity
  8
0
  6
Continuous
 62
     7
100
AcDbCircle
 10
-61.78270952585314
 20
121.8229400432739
 30
0.0
 40
1.949999999999534
  0
CIRCLE
  5
36F
330
1F
100
AcDbEntity
  8
0
  6
Continuous
 62
     7
100
AcDbCircle
 10
-57.28270952585268
 20
121.8229400432739
 30
0.0
 40
1.300000000000004
  0
CIRCLE
  5
370
330
1F
100
AcDbEntity
  8
0
  6
Continuous
 62
     7
100
AcDbCircle
 10
-57.28270952585268
 20
121.8229400432739
 30
0.0
 40
1.949999999999996
  0
CIRCLE
  5
371
330
1F
100
AcDbEntity
  8
0
  6
Continuous
 62
     7
100
AcDbCircle
 10
-70.78270952585247
 20
126.3229400432739
 30
0.0
 40
1.299999999999997
  0
CIRCLE
  5
372
330
1F
100
AcDbEntity
  8
0
  6
Continuous
 62
     7
100
AcDbCircle
 10
-70.78270952585247
 20
130.8229400432739
 30
0.0
 40
1.950000000000003
  0
CIRCLE
  5
373
330
1F
100
AcDbEntity
  8
0
  6
Continuous
 62
     7
100
AcDbCircle
 10
-57.28270952585268
 20
135.3229400432739
 30
0.0
 40
1.949999999999996
  0
CIRCLE
  5
374
330
1F
100
AcDbEntity
  8
0
  6
Continuous
 62
     7
100
AcDbCircle
 10
-57.28270952585316
 20
130.8229400432739
 30
0.0
 40
1.94999999999952
  0
CIRCLE
  5
375
330
1F
100
AcDbEntity
  8
0
  6
Continuous
 62
     7
100
AcDbCircle
 10
-70.78270952585247
 20
135.3229400432739
 30
0.0
 40
1.950000000000003
  0
CIRCLE
  5
376
330
1F
100
AcDbEntity
  8
0
  6
Continuous
 62
     7
100
AcDbCircle
 10
-61.7827095258527
 20
39.6229400432739
 30
0.0
 40
2.15000000000002
  0
CIRCLE
  5
377
330
1F
100
AcDbEntity
  8
0
  6
Continuous
 62
     7
100
AcDbCircle
 10
-57.28270952585268
 20
126.3229400432739
 30
0.0
 40
1.300000000000004
  0
CIRCLE
  5
378
330
1F
100
AcDbEntity
  8
0
  6
Continuous
 62
     7
100
AcDbCircle
 10
-57.28270952585316
 20
130.8229400432739
 30
0.0
 40
1.30000000000048
  0
CIRCLE
  5
379
330
1F
100
AcDbEntity
  8
0
  6
Continuous
 62
     7
100
AcDbCircle
 10
-64.03270952585271
 20
134.4229400432739
 30
0.0
 40
2.499999999999974
  0
CIRCLE
  5
37A
330
1F
100
AcDbEntity
  8
1
  6
Continuous
 62
     7
100
AcDbCircle
 10
-38.63433487542782
 20
7.7
 30
0.0
 40
1.24746823112261
  0
SPLINE
  5
37B
330
1F
100
AcDbEntity
  8
0
  6
Continuous
 62
     7
100
AcDbSpline
210
0.0
220
0.0
230
1.0
 70
     8
 71
     3
 72
    19
 73
    15
 74
    13
 42
0.000000001
 43
0.0000000001
 44
0.00000001
 40
0.0
 40
0.0
 40
0.0
 40
0.0
 40
0.0086736313049478
 40
0.0212317442687921
 40
0.0324736121214558
 40
0.0455659553682865
 40
0.0590161555873275
 40
0.0777870045202786
 40
0.1017400229772129
 40
0.1394263553625091
 40
0.1614808955747715
 40
0.1803372999038358
 40
0.2017012984488203
 40
0.2232821130464392
 40
0.2232821130464392
 40
0.2232821130464392
 40
0.2232821130464392
 10
-18.05023483688864
 20
59.8929400432739
 30
0.0
 10
-18.04733233747723
 20
59.89327164462191
 30
0.0
 10
-18.04022745666115
 20
59.89408335454196
 30
0.0
 10
-18.03095619337753
 20
59.90044392384722
 30
0.0
 10
-18.02262114465093
 20
59.90946608804443
 30
0.0
 10
-18.0156653236825
 20
59.92004539172654
 30
0.0
 10
-18.00882558909791
 20
59.93352652671697
 30
0.0
 10
-18.00200155503504
 20
59.95099891331188
 30
0.0
 10
-17.99449501896378
 20
59.97675899070413
 30
0.0
 10
-17.98915633299302
 20
60.00418976635564
 30
0.0
 10
-17.98578374309366
 20
60.03017641328826
 30
0.0
 10
-17.9839312668086
 20
60.05085557664919
 30
0.0
 10
-17.98277258769849
 20
60.07143030765391
 30
0.0
 10
-17.98262452729288
 20
60.08574603941445
 30
0.0
 10
-17.98255012116816
 20
60.09294004327298
 30
0.0
 11
-18.05023483688864
 21
59.8929400432739
 31
0.0
 11
-18.0417014277478
 21
59.89449341980902
 31
0.0
 11
-18.03097514849544
 21
59.90102434820112
 31
0.0
 11
-18.0232565007602
 21
59.90919760010419
 31
0.0
 11
-18.01594528067214
 21
59.92005833197813
 31
0.0
 11
-18.00979412686443
 21
59.93201956866485
 31
0.0
 11
-18.00286305373565
 21
59.94946390824865
 31
0.0
 11
-17.99605226177801
 21
59.9724282326528
 31
0.0
 11
-17.98865557028488
 21
60.00938156256029
 31
0.0
 11
-17.98580301471021
 21
60.03125084855362
 31
0.0
 11
-17.98410309194786
 21
60.05003047178552
 31
0.0
 11
-17.98293927347571
 21
60.07136274713392
 31
0.0
 11
-17.98255012116816
 21
60.09294004327298
 31
0.0
  0
SPLINE
  5
37C
330
1F
100
AcDbEntity
  8
0
  6
Continuous
 62
     7
100
AcDbSpline
210
0.0
220
0.0
230
1.0
 70
     8
 71
     3
 72
    21
 73
    17
 74
    15
 42
0.000000001
 43
0.0000000001
 44
0.00000001
 40
0.0
 40
0.0
 40
0.0
 40
0.0
 40
0.0317982041740325
 40
0.0648264210271236
 40
0.0824067266203068
 40
0.1006277142831437
 40
0.123157743628588
 40
0.1467025320181985
 40
0.1724752230096399
 40
0.2058262469294106
 40
0.2420122258086752
 40
0.291982255928251
 40
0.3404169069999768
 40
0.3781391440858243
 40
0.3950867706953011
 40
0.4120422519428192
 40
0.4120422519428192
 40
0.4120422519428192
 40
0.4120422519428192
 10
-17.98255012116816
 20
63.9929400432739
 30
0.0
 10
-17.98172062364149
 20
64.00356615022729
 30
0.0
 10
-17.98002952808886
 20
64.02522939913004
 30
0.0
 10
-17.96902572945372
 20
64.05089731440628
 30
0.0
 10
-17.95699578069433
 20
64.07043003353253
 30
0.0
 10
-17.94507309737239
 20
64.08584389248534
 30
0.0
 10
-17.93025773230654
 20
64.10138267769761
 30
0.0
 10
-17.91203588220988
 20
64.11698170776444
 30
0.0
 10
-17.88949009244116
 20
64.1328899465446
 30
0.0
 10
-17.86182209637585
 20
64.14862113982329
 30
0.0
 10
-17.82536940936201
 20
64.16482986129193
 30
0.0
 10
-17.78255056121361
 20
64.17857804135102
 30
0.0
 10
-17.7380116173412
 20
64.18767474011042
 30
0.0
 10
-17.70381603230859
 20
64.1914440623801
 30
0.0
 10
-17.67997097046249
 20
64.19276380936985
 30
0.0
 10
-17.66866925612753
 20
64.19288129330742
 30
0.0
 10
-17.66301708966226
 20
64.19294004327391
 30
0.0
 11
-17.98255012116816
 21
63.9929400432739
 31
0.0
 11
-17.97838577426317
 21
64.02446438890472
 31
0.0
 11
-17.9660738532027
 21
64.0551120659362
 31
0.0
 11
-17.95685207576706
 21
64.07007956405411
 31
0.0
 11
-17.94574177867061
 21
64.08452136800851
 31
0.0
 11
-17.93023603205184
 21
64.10086682754928
 31
0.0
 11
-17.91238613891757
 21
64.11622060149791
 31
0.0
 11
-17.89135948961107
 21
64.13112401110361
 31
0.0
 11
-17.86240945064041
 21
64.14768257498355
 31
0.0
 11
-17.82937454787708
 21
64.1624514702036
 31
0.0
 11
-17.78183255371751
 21
64.17783856554435
 31
0.0
 11
-17.73438486634907
 21
64.18756648332652
 31
0.0
 11
-17.69689328046981
 21
64.19173159010077
 31
0.0
 11
-17.67996985438269
 21
64.19263692960469
 31
0.0
 11
-17.66301708966226
 21
64.19294004327391
 31
0.0
  0
ARC
  5
37D
102
{ACAD_REACTORS
330
3D7
102
}
330
1F
100
AcDbEntity
  8
1
  6
Continuous
 62
     7
100
AcDbCircle
 10
-9.16184965562866
 20
6.41666666666663
 30
0.0
 40
0.0833333333333545
100
AcDbArc
 50
209.9999999999622
 51
330.0000000000177
  0
ARC
  5
37E
102
{ACAD_REACTORS
330
3D8
102
}
330
1F
100
AcDbEntity
  8
1
  6
Continuous
 62
     7
100
AcDbCircle
 10
-10.32851632229534
 20
5.13501057401635
 30
0.0
 40
0.3333333333333215
100
AcDbArc
 50
180.0000000000104
 51
240.0183606311564
  0
ARC
  5
37F
330
1F
100
AcDbEntity
  8
1
  6
Continuous
 62
     7
100
AcDbCircle
 10
-13.32842375540861
 20
6.25
 30
0.0
 40
0.0833333333333053
100
AcDbArc
 50
119.9816393688866
 51
240.0183606311338
  0
ARC
  5
380
330
1F
100
AcDbEntity
  8
1
  6
Continuous
 62
     7
100
AcDbCircle
 10
-4.99527555584871
 20
6.25
 30
0.0
 40
0.0833333333333293
100
AcDbArc
 50
299.9816393688334
 51
60.01836063114615
  0
ARC
  5
381
102
{ACAD_REACTORS
330
3D9
102
}
330
1F
100
AcDbEntity
  8
1
  6
Continuous
 62
     7
100
AcDbCircle
 10
-7.82851632229534
 20
7.46125008008369
 30
0.0
 40
0.1666666666666874
100
AcDbArc
 50
60.01836063114941
 51
180.0
  0
ARC
  5
382
102
{ACAD_REACTORS
330
3D9
102
}
330
1F
100
AcDbEntity
  8
1
  6
Continuous
 62
     7
100
AcDbCircle
 10
-7.82851632229534
 20
5.03874991991631
 30
0.0
 40
0.1666666666666252
100
AcDbArc
 50
180.0
 51
299.9816393688506
  0
ARC
  5
383
330
1F
100
AcDbEntity
  8
1
  6
Continuous
 62
     4
100
AcDbCircle
 10
-63.65715966768872
 20
80.69294004327395
 30
0.0
 40
0.0999999999999885
100
AcDbArc
 50
141.3401917459264
 51
218.659808254071
  0
ARC
  5
384
330
1F
100
AcDbEntity
  8
1
  6
Continuous
 62
     4
100
AcDbCircle
 10
-64.03270952585265
 20
81.0684899014379
 30
0.0
 40
0.0999999999999529
100
AcDbArc
 50
231.3401917458997
 51
308.6598082540704
  0
ARC
  5
385
330
1F
100
AcDbEntity
  8
1
  6
Continuous
 62
     4
100
AcDbCircle
 10
-64.40825938401667
 20
80.69294004327388
 30
0.0
 40
0.1000000000000062
100
AcDbArc
 50
321.3401917459659
 51
38.65980825409772
  0
ARC
  5
386
330
1F
100
AcDbEntity
  8
1
  6
Continuous
 62
     4
100
AcDbCircle
 10
-64.03270952585271
 20
80.31739018510994
 30
0.0
 40
0.100000000000075
100
AcDbArc
 50
51.34019174592962
 51
128.659808254057
  0
ARC
  5
387
330
1F
100
AcDbEntity
  8
1
  6
Continuous
 62
     7
100
AcDbCircle
 10
-65.83270952585268
 20
138.2486759745622
 30
0.0
 40
0.2999999999999829
100
AcDbArc
 50
0.0
 51
24.46980052072005
  0
ARC
  5
388
330
1F
100
AcDbEntity
  8
1
  6
Continuous
 62
     7
100
AcDbCircle
 10
-65.83270952585268
 20
138.2486759745622
 30
0.0
 40
0.3000000000000224
100
AcDbArc
 50
24.46980052072005
 51
45.00000000000767
  0
ARC
  5
389
330
1F
100
AcDbEntity
  8
1
  6
Continuous
 62
     7
100
AcDbCircle
 10
-62.23270952585268
 20
138.2486759745622
 30
0.0
 40
0.3000000000000597
100
AcDbArc
 50
134.9999999999971
 51
180.0
  0
ARC
  5
38A
102
{ACAD_REACTORS
330
3DC
102
}
330
1F
100
AcDbEntity
  8
1
  6
Continuous
 62
     2
100
AcDbCircle
 10
-28.62213923928964
 20
82.380997603332
 30
0.0
 40
0.0458333333333179
100
AcDbArc
 50
209.9999999999605
 51
330.000000000035
  0
ARC
  5
38B
102
{ACAD_REACTORS
330
3DB
102
}
330
1F
100
AcDbEntity
  8
1
  6
Continuous
 62
     2
100
AcDbCircle
 10
-29.26380590595633
 20
81.67608675237435
 30
0.0
 40
0.1833333333333229
100
AcDbArc
 50
180.0
 51
240.01836063117
  0
ARC
  5
38C
330
1F
100
AcDbEntity
  8
1
  6
Continuous
 62
     2
100
AcDbCircle
 10
-30.91375499416864
 20
82.28933093666537
 30
0.0
 40
0.0458333333332999
100
AcDbArc
 50
119.9816393688026
 51
240.018360631224
  0
ARC
  5
38D
330
1F
100
AcDbEntity
  8
1
  6
Continuous
 62
     2
100
AcDbCircle
 10
-26.33052348441065
 20
82.28933093666537
 30
0.0
 40
0.0458333333333635
100
AcDbArc
 50
299.9816393688337
 51
60.01836063113971
  0
ARC
  5
38E
102
{ACAD_REACTORS
330
3DD
102
}
330
1F
100
AcDbEntity
  8
1
  6
Continuous
 62
     2
100
AcDbCircle
 10
-27.88880590595627
 20
82.95551848071142
 30
0.0
 40
0.0916666666666211
100
AcDbArc
 50
60.01836063117435
 51
180.0
  0
ARC
  5
38F
102
{ACAD_REACTORS
330
3DD
102
}
330
1F
100
AcDbEntity
  8
1
  6
Continuous
 62
     2
100
AcDbCircle
 10
-27.88880590595627
 20
81.62314339261934
 30
0.0
 40
0.091666666666697
100
AcDbArc
 50
180.0
 51
299.9816393688079
  0
MTEXT
  5
391
330
1F
100
AcDbEntity
  8
1
 62
     7
100
AcDbMText
 10
-76.36
 20
6.25
 30
0.0
 40
2.25
 41
0.0
 71
     4
 72
     1
  1
CQF 12  female insert crimp 12P+\P10A 400/690V 6kV 2 ( 400V 6kV 3 )
  7
CONVERTER_11
 73
     1
 44
0.90036014405762
  0
MTEXT
  5
393
330
1F
100
AcDbEntity
  8
1
 62
     4
100
AcDbMText
 10
-73.03219920381345
 20
119.9407439351836
 30
0.0
 40
1.0
 41
0.0
 71
     5
 72
     1
  1
1
  7
CONVERTER_12
 73
     1
 44
1.32052821128451
  0
MTEXT
  5
394
330
1F
100
AcDbEntity
  8
1
 62
     4
100
AcDbMText
 10
-68.53219920381345
 20
119.9407439351836
 30
0.0
 40
1.0
 41
0.0
 71
     5
 72
     1
  1
2
  7
CONVERTER_12
 73
     1
 44
1.32052821128451
  0
MTEXT
  5
395
330
1F
100
AcDbEntity
  8
1
 62
     4
100
AcDbMText
 10
-59.53321984789194
 20
119.9407439351836
 30
0.0
 40
1.0
 41
0.0
 71
     5
 72
     1
  1
3
  7
CONVERTER_12
 73
     1
 44
1.32052821128451
  0
MTEXT
  5
396
330
1F
100
AcDbEntity
  8
1
 62
     4
100
AcDbMText
 10
-55.03321984789194
 20
119.9407439351836
 30
0.0
 40
1.0
 41
0.0
 71
     5
 72
     1
  1
4
  7
CONVERTER_12
 73
     1
 44
1.32052821128451
  0
MTEXT
  5
397
330
1F
100
AcDbEntity
  8
1
 62
     4
100
AcDbMText
 10
-73.03219920381345
 20
124.4407439351836
 30
0.0
 40
1.0
 41
0.0
 71
     5
 72
     1
  1
5
  7
CONVERTER_12
 73
     1
 44
1.32052821128451
  0
MTEXT
  5
398
330
1F
100
AcDbEntity
  8
1
 62
     4
100
AcDbMText
 10
-68.53219920381345
 20
124.4407439351836
 30
0.0
 40
1.0
 41
0.0
 71
     5
 72
     1
  1
6
  7
CONVERTER_12
 73
     1
 44
1.32052821128451
  0
MTEXT
  5
399
330
1F
100
AcDbEntity
  8
1
 62
     4
100
AcDbMText
 10
-59.53321984789194
 20
124.4407439351836
 30
0.0
 40
1.0
 41
0.0
 71
     5
 72
     1
  1
7
  7
CONVERTER_12
 73
     1
 44
1.32052821128451
  0
MTEXT
  5
39A
330
1F
100
AcDbEntity
  8
1
 62
     4
100
AcDbMText
 10
-55.03321984789194
 20
124.4407439351836
 30
0.0
 40
1.0
 41
0.0
 71
     5
 72
     1
  1
8
  7
CONVERTER_12
 73
     1
 44
1.32052821128451
  0
MTEXT
  5
39B
330
1F
100
AcDbEntity
  8
1
 62
     4
100
AcDbMText
 10
-73.23219920381344
 20
129.2407439351835
 30
0.0
 40
1.0
 41
0.0
 71
     5
 72
     1
  1
9
  7
CONVERTER_12
 73
     1
 44
1.32052821128451
  0
MTEXT
  5
39C
330
1F
100
AcDbEntity
  8
1
 62
     4
100
AcDbMText
 10
-68.40540054326972
 20
136.9845392470865
 30
0.0
 40
1.0
 41
0.0
 71
     5
 72
     1
  1
11
  7
CONVERTER_12
 73
     1
 44
1.32052821128451
  0
MTEXT
  5
39D
330
1F
100
AcDbEntity
  8
1
 62
     4
100
AcDbMText
 10
-54.8332198478919
 20
129.2407439351835
 30
0.0
 40
1.0
 41
0.0
 71
     5
 72
     1
  1
10
  7
CONVERTER_12
 73
     1
 44
1.32052821128451
  0
MTEXT
  5
39E
330
1F
100
AcDbEntity
  8
1
 62
     4
100
AcDbMText
 10
-59.66001850843561
 20
136.9845392470865
 30
0.0
 40
1.0
 41
0.0
 71
     5
 72
     1
  1
12
  7
CONVERTER_12
 73
     1
 44
1.32052821128451
  0
MTEXT
  5
3A0
330
1F
100
AcDbEntity
  8
1
 62
     4
100
AcDbMText
 10
-72.43219920381352
 20
42.70513615136422
 30
0.0
 40
1.0
 41
0.0
 71
     5
 72
     1
  1
1
  7
CONVERTER_13
 11
-1.0
 21
0.0
 31
0.0
 73
     1
 44
1.32052821128451
  0
MTEXT
  5
3A1
330
1F
100
AcDbEntity
  8
1
 62
     4
100
AcDbMText
 10
-55.733219847892
 20
36.60513615136424
 30
0.0
 40
1.0
 41
0.0
 71
     5
 72
     1
  1
10
  7
CONVERTER_12
 11
-1.0
 21
0.0
 31
0.0
 73
     1
 44
1.32052821128451
  0
MTEXT
  5
3A2
330
1F
100
AcDbEntity
  8
1
 62
     4
100
AcDbMText
 10
-72.50540054327001
 20
32.16134083946115
 30
0.0
 40
1.0
 41
0.0
 71
     5
 72
     1
  1
11
  7
CONVERTER_13
 11
-1.0
 21
0.0
 31
0.0
 73
     1
 44
1.32052821128451
  0
MTEXT
  5
3A3
330
1F
100
AcDbEntity
  8
1
 62
     4
100
AcDbMText
 10
-67.93219920381381
 20
45.60513615136421
 30
0.0
 40
1.0
 41
0.0
 71
     5
 72
     1
  1
2
  7
CONVERTER_13
 11
-1.0
 21
0.0
 31
0.0
 73
     1
 44
1.32052821128451
  0
MTEXT
  5
3A4
330
1F
100
AcDbEntity
  8
1
 62
     4
100
AcDbMText
 10
-72.43219920381381
 20
41.20513615136422
 30
0.0
 40
1.0
 41
0.0
 71
     5
 72
     1
  1
5
  7
CONVERTER_12
 11
-1.0
 21
0.0
 31
0.0
 73
     1
 44
1.32052821128451
  0
MTEXT
  5
3A5
330
1F
100
AcDbEntity
  8
1
 62
     4
100
AcDbMText
 10
-55.5600185084356
 20
32.16134083946115
 30
0.0
 40
1.0
 41
0.0
 71
     5
 72
     1
  1
12
  7
CONVERTER_13
 11
-1.0
 21
0.0
 31
0.0
 73
     1
 44
1.32052821128451
  0
MTEXT
  5
3A6
330
1F
100
AcDbEntity
  8
1
 62
     4
100
AcDbMText
 10
-72.3321992038135
 20
36.60513615136424
 30
0.0
 40
1.0
 41
0.0
 71
     5
 72
     1
  1
9
  7
CONVERTER_12
 11
-1.0
 21
0.0
 31
0.0
 73
     1
 44
1.32052821128451
  0
MTEXT
  5
3A7
330
1F
100
AcDbEntity
  8
1
 62
     4
100
AcDbMText
 10
-55.63321984789203
 20
41.20513615136422
 30
0.0
 40
1.0
 41
0.0
 71
     5
 72
     1
  1
8
  7
CONVERTER_12
 11
-1.0
 21
0.0
 31
0.0
 73
     1
 44
1.32052821128451
  0
MTEXT
  5
3A8
330
1F
100
AcDbEntity
  8
1
 62
     4
100
AcDbMText
 10
-59.53321984789189
 20
41.50513615136424
 30
0.0
 40
1.0
 41
0.0
 71
     5
 72
     1
  1
7
  7
CONVERTER_12
 11
-1.0
 21
0.0
 31
0.0
 73
     1
 44
1.32052821128451
  0
MTEXT
  5
3A9
330
1F
100
AcDbEntity
  8
1
 62
     4
100
AcDbMText
 10
-68.53219920381352
 20
41.50513615136424
 30
0.0
 40
1.0
 41
0.0
 71
     5
 72
     1
  1
6
  7
CONVERTER_12
 11
-1.0
 21
0.0
 31
0.0
 73
     1
 44
1.32052821128451
  0
MTEXT
  5
3AA
330
1F
100
AcDbEntity
  8
1
 62
     4
100
AcDbMText
 10
-55.63321984789203
 20
42.70513615136422
 30
0.0
 40
1.0
 41
0.0
 71
     5
 72
     1
  1
4
  7
CONVERTER_12
 11
-1.0
 21
0.0
 31
0.0
 73
     1
 44
1.32052821128451
  0
MTEXT
  5
3AB
330
1F
100
AcDbEntity
  8
1
 62
     4
100
AcDbMText
 10
-60.13321984789203
 20
45.60513615136421
 30
0.0
 40
1.0
 41
0.0
 71
     5
 72
     1
  1
3
  7
CONVERTER_13
 11
-1.0
 21
0.0
 31
0.0
 73
     1
 44
1.32052821128451
  0
MTEXT
  5
3AC
330
1F
100
AcDbEntity
  8
1
 62
     4
100
AcDbMText
 10
-66.28270952585251
 20
33.06402495741384
 30
0.0
 40
1.0
 41
0.0
 71
     5
 72
     1
  1
A
  7
CONVERTER_12
 11
-1.0
 21
0.0
 31
0.0
 73
     1
 44
1.32052821128451
  0
MTEXT
  5
3AD
330
1F
100
AcDbEntity
  8
1
 62
     4
100
AcDbMText
 10
-61.78270952585252
 20
33.06402495741384
 30
0.0
 40
1.0
 41
0.0
 71
     5
 72
     1
  1
B
  7
CONVERTER_12
 11
-1.0
 21
0.0
 31
0.0
 73
     1
 44
1.32052821128451
  0
MTEXT
  5
3AE
330
1F
100
AcDbEntity
  8
1
 62
     7
100
AcDbMText
 10
-97.0000000000001
 20
75.74999999999996
 30
0.0
 40
2.0
 41
0.0
 71
     5
 72
     1
  1
Diritti riservati      All rights reserved
  7
CONVERTER_11
 11
0.0
 21
1.0
 31
0.0
 73
     1
 44
1.32052821128451
  0
MTEXT
  5
3AF
330
1F
100
AcDbEntity
  8
1
 62
     7
100
AcDbMText
 10
-88.20000000000006
 20
4.37500000000001
 30
0.0
 40
1.5
 41
0.0
 71
     4
 72
     1
  1
T.Tedeschi
  7
CONVERTER_11
 73
     1
 44
1.32052821128451
  0
MTEXT
  5
3B0
330
1F
100
AcDbEntity
  8
1
 62
     7
100
AcDbMText
 10
-93.50000000000004
 20
4.37500000000001
 30
0.0
 40
1.5
 41
0.0
 71
     4
 72
     1
  1
Sign.
  7
CONVERTER_11
 73
     1
 44
1.32052821128451
  0
MTEXT
  5
3B1
330
1F
100
AcDbEntity
  8
1
 62
     7
100
AcDbMText
 10
-88.20000000000006
 20
8.130319710378
 30
0.0
 40
1.5
 41
0.0
 71
     4
 72
     1
  1
20/06/06
  7
CONVERTER_11
 73
     1
 44
1.32052821128451
  0
MTEXT
  5
3B2
330
1F
100
AcDbEntity
  8
1
 62
     7
100
AcDbMText
 10
-93.50000000000004
 20
8.130319710378
 30
0.0
 40
1.5
 41
0.0
 71
     4
 72
     1
  1
Date
  7
CONVERTER_11
 73
     1
 44
1.32052821128451
  0
MTEXT
  5
3B3
330
1F
100
AcDbEntity
  8
1
 62
     7
100
AcDbMText
 10
-20.16184965562864
 20
8.130319710378
 30
0.0
 40
1.5
 41
0.0
 71
     5
 72
     1
  1
Scale
  7
CONVERTER_11
 73
     1
 44
1.32052821128451
  0
MTEXT
  5
3B4
330
1F
100
AcDbEntity
  8
1
 62
     7
100
AcDbMText
 10
-20.16184965562864
 20
5.03031971037804
 30
0.0
 40
2.25
 41
0.0
 71
     5
 72
     1
  1
2:1
  7
CONVERTER_11
 73
     1
 44
1.32052821128451
  0
DIMENSION
  5
3BF
330
1F
100
AcDbEntity
  8
1
100
AcDbDimension
  2
*D1
 10
-36.58255012116817
 20
106.571466744302
 30
0.0
 11
-26.08255012116818
 21
108.321466744302
 31
0.0
 70
    32
  1
<>
 71
     5
 42
-1.0
 53
0.00013888888889
  3
ME10_DIM_10
100
AcDbAlignedDimension
 13
-15.58255012116818
 23
86.1929400432739
 33
0.0
 14
-36.58255012116817
 24
86.1929400432739
 34
0.0
100
AcDbRotatedDimension
  0
DIMENSION
  5
3CA
330
1F
100
AcDbEntity
  8
1
100
AcDbDimension
  2
*D2
 10
-74.5327095258527
 20
106.571466744302
 30
0.0
 11
-64.0327095258527
 21
108.321466744302
 31
0.0
 70
    32
  1
<>
 71
     5
 42
-1.0
 53
0.00013888888889
  3
ME10_DIM_11
100
AcDbAlignedDimension
 13
-53.5327095258527
 23
86.1929400432739
 33
0.0
 14
-74.5327095258527
 24
86.1929400432739
 34
0.0
100
AcDbRotatedDimension
  0
DIMENSION
  5
3D5
330
1F
100
AcDbEntity
  8
1
100
AcDbDimension
  2
*D3
 10
-82.2897214393881
 20
99.9929400432739
 30
0.0
 11
-84.1147214393881
 21
78.44294004327391
 31
0.0
 70
    32
  1
<>
 71
     5
 42
-1.0
 53
90.0
  3
ME10_DIM_12
100
AcDbAlignedDimension
 13
-66.53270952585271
 23
56.8929400432739
 33
0.0
 14
-72.7827095258527
 24
99.9929400432739
 34
0.0
 50
90.0
100
AcDbRotatedDimension
  0
HATCH
  5
3D6
330
1F
100
AcDbEntity
  8
1
  6
Continuous
 62
     7
100
AcDbHatch
 10
0.0
 20
0.0
 30
0.0
210
0.0
220
0.0
230
1.0
  2
SOLID
 70
     1
 71
     1
 91
        1
 92
        1
 93
        5
 72
     2
 10
-11.16184965562866
 20
7.07663469546833
 40
0.1666666666666305
 50
0.0
 51
180.0
 73
     1
 72
     1
 10
-11.32851632229534
 20
7.07663469546833
 11
-11.32851632229534
 21
5.423365304531615
 72
     2
 10
-11.16184965562866
 20
5.423365304531615
 40
0.1666666666666785
 50
180.0
 51
360.0
 73
     1
 72
     1
 10
-10.99518298896203
 20
5.423365304531615
 11
-10.99518298896203
 21
5.51962595863165
 72
     1
 10
-10.99518298896203
 20
5.51962595863165
 11
-10.99518298896203
 21
7.07663469546833
 97
        5
330
2C4
330
7E
330
2C5
330
7D
330
7C
 75
     0
 76
     1
 98
        1
 10
0.0
 20
0.0
  0
HATCH
  5
3D7
330
1F
100
AcDbEntity
  8
1
  6
Continuous
 62
     7
100
AcDbHatch
 10
0.0
 20
0.0
 30
0.0
210
0.0
220
0.0
230
1.0
  2
SOLID
 70
     1
 71
     1
 91
        1
 92
        1
 93
       16
 72
     2
 10
-8.460999428533
 20
7.865608656017285
 40
0.1324831062376557
 50
210.0000000000258
 51
360.0
 73
     0
 72
     1
 10
-8.328516322295345
 20
7.865608656017285
 11
-8.328516322295345
 21
4.654134535300898
 72
     2
 10
-8.49518298896197
 20
4.654134535300898
 40
0.1666666666666856
 50
0.0
 51
180.0
 73
     0
 72
     1
 10
-8.661849655628655
 20
4.654134535300898
 11
-8.661849655628655
 21
6.25
 72
     1
 10
-8.661849655628655
 20
6.25
 11
-8.661849655628655
 21
7.11602540378442
 72
     1
 10
-8.661849655628655
 20
7.11602540378442
 11
-9.089680871979965
 21
6.375
 72
     2
 10
-9.161849655628655
 20
6.41666666666663
 40
0.0833333333333545
 50
29.99999999998236
 51
150.0000000000378
 73
     0
 72
     1
 10
-9.234018439277405
 20
6.375
 11
-9.661849655628655
 21
7.11602540378442
 72
     1
 10
-9.661849655628655
 20
7.11602540378442
 11
-9.661849655628655
 21
6.25
 72
     1
 10
-9.661849655628655
 20
6.25
 11
-9.661849655628655
 21
5.423792536316455
 72
     2
 10
-9.828516322295345
 20
5.423792536316455
 40
0.1666666666666856
 50
0.0
 51
180.0
 73
     0
 72
     1
 10
-9.99518298896203
 20
5.423792536316455
 11
-9.99518298896203
 21
6.25
 72
     1
 10
-9.99518298896203
 20
6.25
 11
-9.99518298896203
 21
7.865608656017285
 72
     2
 10
-9.86269988272437
 20
7.865608656017285
 40
0.1324831062376642
 50
180.0
 51
329.9999999999862
 73
     0
 72
     1
 10
-9.747966147150295
 20
7.931850209136145
 11
-9.161849655628655
 21
6.91666666666663
 72
     1
 10
-9.161849655628655
 20
6.91666666666663
 11
-8.57573316410702
 21
7.931850209136145
 97
       16
330
72
330
2BE
330
71
330
73
330
2BF
330
74
330
6C
330
6B
330
37D
330
6A
330
69
330
75
330
2C0
330
76
330
2C1
330
77
 75
     0
 76
     1
 98
        1
 10
0.0
 20
0.0
  0
HATCH
  5
3D8
330
1F
100
AcDbEntity
  8
1
  6
Continuous
 62
     7
100
AcDbHatch
 10
0.0
 20
0.0
 30
0.0
210
0.0
220
0.0
230
1.0
  2
SOLID
 70
     1
 71
     1
 91
        1
 92
        1
 93
        7
 72
     2
 10
-10.49518298896203
 20
7.461250080083685
 40
0.1666666666666909
 50
0.0
 51
180.0
 73
     1
 72
     1
 10
-10.66184965562866
 20
7.461250080083685
 11
-10.66184965562866
 21
5.13501057401629
 72
     2
 10
-10.32851632229534
 20
5.13501057401635
 40
0.3333333333333215
 50
180.0000000000104
 51
240.0183606311564
 73
     1
 72
     1
 10
-10.49509047345851
 20
4.846282045333453
 11
-9.41180339787695
 21
4.221308732497903
 72
     2
 10
-9.328516322295345
 20
4.365672996839351
 40
0.1666666666666837
 50
240.0183606311504
 51
420.0183606311494
 73
     1
 72
     1
 10
-9.245229246713736
 20
4.510037261180798
 11
-10.32851632229534
 21
5.13501057401635
 72
     1
 10
-10.32851632229534
 20
5.13501057401635
 11
-10.32851632229534
 21
7.461250080083685
 97
        7
330
2C2
330
78
330
37E
330
7B
330
2C3
330
7A
330
79
 75
     0
 76
     1
 98
        1
 10
0.0
 20
0.0
  0
HATCH
  5
3D9
330
1F
100
AcDbEntity
  8
1
  6
Continuous
 62
     7
100
AcDbHatch
 10
0.0
 20
0.0
 30
0.0
210
0.0
220
0.0
230
1.0
  2
SOLID
 70
     1
 71
     1
 91
        1
 92
        1
 93
       14
 72
     2
 10
-7.828516322295345
 20
7.461250080083685
 40
0.1666666666666874
 50
60.01836063114941
 51
180.0
 73
     1
 72
     1
 10
-7.99518298896197
 20
7.461250080083685
 11
-7.99518298896197
 21
5.038749919916315
 72
     2
 10
-7.828516322295345
 20
5.038749919916315
 40
0.1666666666666252
 50
180.0
 51
299.9816393688506
 73
     1
 72
     1
 10
-7.745229246713735
 20
4.894385655574865
 11
-7.078562580047105
 21
5.279001040190165
 72
     2
 10
-7.161849655628655
 20
5.423365304531615
 40
0.1666666666666572
 50
299.9816393688326
 51
479.9816393688413
 73
     1
 72
     1
 10
-7.245136731210265
 20
5.56772956887312
 11
-7.661849655628655
 21
5.32731826632397
 72
     1
 10
-7.661849655628655
 20
5.32731826632397
 11
-7.661849655628655
 21
6.083333333333315
 72
     1
 10
-7.661849655628655
 20
6.083333333333315
 11
-7.161849655628655
 21
6.083333333333315
 72
     2
 10
-7.161849655628655
 20
6.25
 40
0.1666666666666847
 50
270.0
 51
450.0
 73
     1
 72
     1
 10
-7.161849655628655
 20
6.41666666666663
 11
-7.661849655628655
 21
6.41666666666663
 72
     1
 10
-7.661849655628655
 20
6.41666666666663
 11
-7.661849655628655
 21
7.17268173367597
 72
     1
 10
-7.661849655628655
 20
7.17268173367597
 11
-7.245136731210265
 21
6.93227043112688
 72
     2
 10
-7.161849655628655
 20
7.07663469546833
 40
0.1666666666666886
 50
240.0183606311493
 51
420.0183606311572
 73
     1
 72
     1
 10
-7.078562580047105
 20
7.22099895980972
 11
-7.745229246713735
 21
7.605614344425135
 97
       14
330
381
330
87
330
382
330
86
330
2C8
330
85
330
84
330
83
330
2C7
330
82
330
81
330
80
330
2C6
330
7F
 75
     0
 76
     1
 98
        1
 10
0.0
 20
0.0
  0
HATCH
  5
3DA
330
1F
100
AcDbEntity
  8
1
  6
Continuous
 62
     3
100
AcDbHatch
 10
0.0
 20
0.0
 30
0.0
210
0.0
220
0.0
230
1.0
  2
_USER
 70
     0
 71
     1
 91
        1
 92
        1
 93
        5
 72
     1
 10
-29.63047257262296
 20
82.74398001917294
 11
-29.63047257262296
 21
81.88762521391281
 72
     1
 10
-29.63047257262296
 20
81.88762521391281
 11
-29.63047257262296
 21
81.83468185415776
 72
     2
 10
-29.72213923928965
 20
81.83468185415776
 40
0.0916666666666899
 50
0.0
 51
180.0
 73
     0
 72
     1
 10
-29.81380590595634
 20
81.83468185415776
 11
-29.81380590595634
 21
82.74398001917294
 72
     2
 10
-29.72213923928965
 20
82.74398001917294
 40
0.0916666666666899
 50
180.0
 51
360.0
 73
     0
 97
        5
330
2B0
330
2B1
330
33B
330
2B2
330
33A
 75
     1
 76
     0
 52
45.0
 41
0.1
 77
     0
 78
     1
 53
45.0
 43
0.0
 44
0.0
 45
-0.0707106781186548
 46
0.0707106781186548
 79
     0
 98
        1
 10
0.0
 20
0.0
  0
HATCH
  5
3DB
330
1F
100
AcDbEntity
  8
1
  6
Continuous
 62
     3
100
AcDbHatch
 10
0.0
 20
0.0
 30
0.0
210
0.0
220
0.0
230
1.0
  2
_USER
 70
     0
 71
     1
 91
        1
 92
        1
 93
        7
 72
     1
 10
-29.26380590595633
 20
82.95551848071142
 11
-29.26380590595633
 21
81.67608675237435
 72
     1
 10
-29.26380590595633
 20
81.67608675237435
 11
-28.66799801438645
 21
81.33235143031482
 72
     2
 10
-28.71380590595627
 20
81.252951084927
 40
0.0916666666666867
 50
299.9816393688124
 51
479.981639368879
 73
     0
 72
     1
 10
-28.7596137975262
 20
81.17355073953922
 11
-29.35542168909603
 21
81.51728606159874
 72
     2
 10
-29.26380590595633
 20
81.67608675237435
 40
0.1833333333333229
 50
119.9816393688299
 51
180.0
 73
     0
 72
     1
 10
-29.44713923928965
 20
81.67608675237435
 11
-29.44713923928965
 21
82.95551848071142
 72
     2
 10
-29.35547257262297
 20
82.95551848071142
 40
0.0916666666666401
 50
180.0
 51
360.0
 73
     0
 97
        7
330
2AD
330
2AE
330
339
330
2AF
330
38B
330
2AC
330
338
 75
     1
 76
     0
 52
45.0
 41
0.1
 77
     0
 78
     1
 53
45.0
 43
0.0
 44
0.0
 45
-0.0707106781186548
 46
0.0707106781186548
 79
     0
 98
        1
 10
0.0
 20
0.0
  0
HATCH
  5
3DC
330
1F
100
AcDbEntity
  8
1
  6
Continuous
 62
     3
100
AcDbHatch
 10
0.0
 20
0.0
 30
0.0
210
0.0
220
0.0
230
1.0
  2
_USER
 70
     0
 71
     1
 91
        1
 92
        1
 93
       16
 72
     1
 10
-28.94450330962652
 20
83.21434855169024
 11
-28.62213923928964
 21
82.655997603332
 72
     1
 10
-28.62213923928964
 20
82.655997603332
 11
-28.29977516895277
 21
83.21434855169024
 72
     2
 10
-28.23667161438701
 20
83.1779156974749
 40
0.07286570843074
 50
209.9999999999799
 51
360.0
 73
     0
 72
     1
 10
-28.16380590595627
 20
83.1779156974749
 11
-28.16380590595627
 21
81.41160493108086
 72
     2
 10
-28.25547257262296
 20
81.41160493108086
 40
0.0916666666666792
 50
0.0
 51
180.0
 73
     0
 72
     1
 10
-28.34713923928964
 20
81.41160493108086
 11
-28.34713923928964
 21
82.28933093666537
 72
     1
 10
-28.34713923928964
 20
82.28933093666537
 11
-28.34713923928964
 21
82.76564490874681
 72
     1
 10
-28.34713923928964
 20
82.76564490874681
 11
-28.58244640828286
 21
82.35808093666537
 72
     2
 10
-28.62213923928964
 20
82.380997603332
 40
0.0458333333333179
 50
29.99999999996496
 51
150.0000000000395
 73
     0
 72
     1
 10
-28.66183207029643
 20
82.35808093666537
 11
-28.89713923928964
 21
82.76564490874681
 72
     1
 10
-28.89713923928964
 20
82.76564490874681
 11
-28.89713923928964
 21
82.28933093666537
 72
     1
 10
-28.89713923928964
 20
82.28933093666537
 11
-28.89713923928964
 21
81.83491683163945
 72
     2
 10
-28.98880590595627
 20
81.83491683163945
 40
0.0916666666667005
 50
0.0
 51
180.0
 73
     0
 72
     1
 10
-29.08047257262297
 20
81.83491683163945
 11
-29.08047257262297
 21
82.28933093666537
 72
     1
 10
-29.08047257262297
 20
82.28933093666537
 11
-29.08047257262297
 21
83.1779156974749
 72
     2
 10
-29.00760686419228
 20
83.1779156974749
 40
0.0728657084307132
 50
180.0
 51
330.0000000000201
 73
     0
 97
       16
330
2A6
330
2AB
330
337
330
2AA
330
336
330
2A9
330
29D
330
29E
330
38A
330
29F
330
2A0
330
2A8
330
335
330
2A7
330
2A5
330
334
 75
     1
 76
     0
 52
45.0
 41
0.1
 77
     0
 78
     1
 53
45.0
 43
0.0
 44
0.0
 45
-0.0707106781186548
 46
0.0707106781186548
 79
     0
 98
        1
 10
0.0
 20
0.0
  0
HATCH
  5
3DD
330
1F
100
AcDbEntity
  8
1
  6
Continuous
 62
     3
100
AcDbHatch
 10
0.0
 20
0.0
 30
0.0
210
0.0
220
0.0
230
1.0
  2
_USER
 70
     0
 71
     1
 91
        1
 92
        1
 93
       14
 72
     1
 10
-27.84299801438645
 20
83.03491882609919
 11
-27.47633134771977
 21
82.82338036456072
 72
     2
 10
-27.52213923928964
 20
82.74398001917294
 40
0.0916666666666495
 50
299.9816393688462
 51
479.9816393688565
 73
     0
 72
     1
 10
-27.56794713085952
 20
82.66457967378517
 11
-27.79713923928964
 21
82.79680589018717
 72
     1
 10
-27.79713923928964
 20
82.79680589018717
 11
-27.79713923928964
 21
82.380997603332
 72
     1
 10
-27.79713923928964
 20
82.380997603332
 11
-27.52213923928964
 21
82.380997603332
 72
     2
 10
-27.52213923928964
 20
82.28933093666537
 40
0.0916666666666686
 50
270.0
 51
450.0
 73
     0
 72
     1
 10
-27.52213923928964
 20
82.1976642699987
 11
-27.79713923928964
 21
82.1976642699987
 72
     1
 10
-27.79713923928964
 20
82.1976642699987
 11
-27.79713923928964
 21
81.78185598314357
 72
     1
 10
-27.79713923928964
 20
81.78185598314357
 11
-27.56794713085952
 21
81.91408219954559
 72
     2
 10
-27.52213923928964
 20
81.83468185415776
 40
0.0916666666666565
 50
240.0183606311614
 51
420.0183606311538
 73
     0
 72
     1
 10
-27.47633134771977
 20
81.75528150876998
 11
-27.84299801438645
 21
81.54374304723152
 72
     2
 10
-27.88880590595627
 20
81.62314339261934
 40
0.091666666666697
 50
60.01836063119208
 51
180.0
 73
     0
 72
     1
 10
-27.98047257262297
 20
81.62314339261934
 11
-27.98047257262297
 21
82.95551848071142
 72
     2
 10
-27.88880590595627
 20
82.95551848071142
 40
0.0916666666666211
 50
180.0
 51
299.9816393688256
 73
     0
 97
       14
330
2B3
330
33C
330
2B4
330
2B5
330
2B6
330
33D
330
2B7
330
2B8
330
2B9
330
33E
330
2BA
330
38F
330
2BB
330
38E
 75
     1
 76
     0
 52
45.0
 41
0.1
 77
     0
 78
     1
 53
45.0
 43
0.0
 44
0.0
 45
-0.0707106781186548
 46
0.0707106781186548
 79
     0
 98
        1
 10
0.0
 20
0.0
  0
ENDSEC
  0
SECTION
  2
OBJECTS
  0
DICTIONARY
  5
C
330
0
100
AcDbDictionary
281
     1
  3
ACAD_GROUP
350
D
  3
ACAD_LAYOUT
350
1A
  3
ACAD_MATERIAL
350
3B
  3
ACAD_MLEADERSTYLE
350
3E0
  3
ACAD_MLINESTYLE
350
17
  3
ACAD_PLOTSETTINGS
350
19
  3
ACAD_PLOTSTYLENAME
350
E
  3
ACAD_VISUALSTYLE
350
2A
  3
AcDbVariableDictionary
350
3DE
  0
DICTIONARY
  5
D
102
{ACAD_REACTORS
330
C
102
}
330
C
100
AcDbDictionary
281
     1
  0
DICTIONARY
  5
1A
102
{ACAD_REACTORS
330
C
102
}
330
C
100
AcDbDictionary
281
     1
  3
Layout1
350
1E
  3
Layout2
350
26
  3
Model
350
22
  0
DICTIONARY
  5
3B
102
{ACAD_REACTORS
330
C
102
}
330
C
100
AcDbDictionary
281
     1
  3
ByBlock
350
3D
  3
ByLayer
350
3C
  3
Global
350
3E
  0
DICTIONARY
  5
3E0
102
{ACAD_REACTORS
330
C
102
}
330
C
100
AcDbDictionary
281
     1
  0
DICTIONARY
  5
17
102
{ACAD_REACTORS
330
C
102
}
330
C
100
AcDbDictionary
281
     1
  3
Standard
350
18
  0
DICTIONARY
  5
19
102
{ACAD_REACTORS
330
C
102
}
330
C
100
AcDbDictionary
281
     1
  0
ACDBDICTIONARYWDFLT
  5
E
102
{ACAD_REACTORS
330
C
102
}
330
C
100
AcDbDictionary
281
     1
  3
Normal
350
F
100
AcDbDictionaryWithDefault
340
F
  0
DICTIONARY
  5
2A
102
{ACAD_REACTORS
330
C
102
}
330
C
100
AcDbDictionary
281
     1
  3
2dWireframe
350
2F
  3
3D Hidden
350
31
  3
3dWireframe
350
30
  3
Basic
350
32
  3
Brighten
350
36
  3
ColorChange
350
3A
  3
Conceptual
350
34
  3
Dim
350
35
  3
Facepattern
350
39
  3
Flat
350
2B
  3
FlatWithEdges
350
2C
  3
Gouraud
350
2D
  3
GouraudWithEdges
350
2E
  3
Linepattern
350
38
  3
Realistic
350
33
  3
Thicken
350
37
  0
DICTIONARY
  5
3DE
102
{ACAD_REACTORS
330
C
102
}
330
C
100
AcDbDictionary
281
     1
  3
DIMASSOC
350
3E1
  3
HIDETEXT
350
3E2
  0
LAYOUT
  5
1E
102
{ACAD_REACTORS
330
1A
102
}
330
1A
100
AcDbPlotSettings
  1

  2
none_device
  4

  6

 40
0.0
 41
0.0
 42
0.0
 43
0.0
 44
0.0
 45
0.0
 46
0.0
 47
0.0
 48
0.0
 49
0.0
140
0.0
141
0.0
142
1.0
143
1.0
 70
   688
 72
     0
 73
     0
 74
     5
  7

 75
    16
147
1.0
148
0.0
149
0.0
100
AcDbLayout
  1
Layout1
 70
     1
 71
     1
 10
0.0
 20
0.0
 11
12.0
 21
9.0
 12
0.0
 22
0.0
 32
0.0
 14
1.00000000000000E+20
 24
1.00000000000000E+20
 34
1.00000000000000E+20
 15
-1.00000000000000E+20
 25
-1.00000000000000E+20
 35
-1.00000000000000E+20
146
0.0
 13
0.0
 23
0.0
 33
0.0
 16
1.0
 26
0.0
 36
0.0
 17
0.0
 27
1.0
 37
0.0
 76
     0
330
1B
  0
LAYOUT
  5
26
102
{ACAD_REACTORS
330
1A
102
}
330
1A
100
AcDbPlotSettings
  1

  2
none_device
  4

  6

 40
0.0
 41
0.0
 42
0.0
 43
0.0
 44
0.0
 45
0.0
 46
0.0
 47
0.0
 48
0.0
 49
0.0
140
0.0
141
0.0
142
1.0
143
1.0
 70
   688
 72
     0
 73
     0
 74
     5
  7

 75
    16
147
1.0
148
0.0
149
0.0
100
AcDbLayout
  1
Layout2
 70
     1
 71
     2
 10
0.0
 20
0.0
 11
0.0
 21
0.0
 12
0.0
 22
0.0
 32
0.0
 14
0.0
 24
0.0
 34
0.0
 15
0.0
 25
0.0
 35
0.0
146
0.0
 13
0.0
 23
0.0
 33
0.0
 16
1.0
 26
0.0
 36
0.0
 17
0.0
 27
1.0
 37
0.0
 76
     0
330
23
  0
LAYOUT
  5
22
102
{ACAD_REACTORS
330
1A
102
}
330
1A
100
AcDbPlotSettings
  1

  2
none_device
  4

  6

 40
0.0
 41
0.0
 42
0.0
 43
0.0
 44
0.0
 45
0.0
 46
0.0
 47
0.0
 48
0.0
 49
0.0
140
0.0
141
0.0
142
1.0
143
1.0
 70
  1712
 72
     0
 73
     0
 74
     0
  7

 75
     0
147
1.0
148
0.0
149
0.0
100
AcDbLayout
  1
Model
 70
     1
 71
     0
 10
0.0
 20
0.0
 11
12.0
 21
9.0
 12
0.0
 22
0.0
 32
0.0
 14
-105.0000000000001
 24
0.0
 34
0.0
 15
0.0
 25
148.5000000000001
 35
0.0
146
0.0
 13
0.0
 23
0.0
 33
0.0
 16
1.0
 26
0.0
 36
0.0
 17
0.0
 27
1.0
 37
0.0
 76
     0
330
1F
331
29
  0
MATERIAL
  5
3D
102
{ACAD_REACTORS
330
3B
102
}
102
{ACAD_XDICTIONARY
360
405
102
}
330
3B
100
AcDbMaterial
  1
ByBlock
  0
MATERIAL
  5
3C
102
{ACAD_REACTORS
330
3B
102
}
102
{ACAD_XDICTIONARY
360
403
102
}
330
3B
100
AcDbMaterial
  1
ByLayer
  0
MATERIAL
  5
3E
102
{ACAD_REACTORS
330
3B
102
}
102
{ACAD_XDICTIONARY
360
407
102
}
330
3B
100
AcDbMaterial
  1
Global
  0
MLINESTYLE
  5
18
102
{ACAD_REACTORS
330
17
102
}
330
17
100
AcDbMlineStyle
  2
Standard
 70
     0
  3

 62
   256
 51
90.0
 52
90.0
 71
     2
 49
0.5
 62
   256
  6
BYLAYER
 49
-0.5
 62
   256
  6
BYLAYER
  0
ACDBPLACEHOLDER
  5
F
102
{ACAD_REACTORS
330
E
102
}
330
E
  0
VISUALSTYLE
  5
2F
102
{ACAD_REACTORS
330
2A
102
}
102
{ACAD_XDICTIONARY
360
3EB
102
}
330
2A
100
AcDbVisualStyle
  2
2dWireframe
 70
     4
 71
     0
 72
     2
 73
     0
 90
        0
 40
-0.6
 41
-30.0
 62
     5
 63
     7
 74
     1
 91
        4
 64
     7
 65
   257
 75
     1
175
     1
 42
1.0
 92
        0
 66
   257
 43
1.0
 76
     1
 77
     6
 78
     2
 67
     7
 79
     5
170
     0
171
     0
290
     0
174
     0
 93
        1
 44
0.0
173
     0
291
     0
 45
0.0
1001
ACAD
1000
AcDbSavedByObjectVersion
1070
     0
  0
VISUALSTYLE
  5
31
102
{ACAD_REACTORS
330
2A
102
}
102
{ACAD_XDICTIONARY
360
3EF
102
}
330
2A
100
AcDbVisualStyle
  2
3D Hidden
 70
     6
 71
     1
 72
     2
 73
     2
 90
        0
 40
-0.6
 41
-30.0
 62
     5
 63
     7
 74
     2
 91
        2
 64
     7
 65
   257
 75
     2
175
     1
 42
40.0
 92
        0
 66
   257
 43
1.0
 76
     1
 77
     6
 78
     2
 67
     7
 79
     3
170
     0
171
     0
290
     0
174
     0
 93
        1
 44
0.0
173
     0
291
     0
 45
0.0
1001
ACAD
1000
AcDbSavedByObjectVersion
1070
     0
  0
VISUALSTYLE
  5
30
102
{ACAD_REACTORS
330
2A
102
}
102
{ACAD_XDICTIONARY
360
3ED
102
}
330
2A
100
AcDbVisualStyle
  2
3dWireframe
 70
     5
 71
     0
 72
     2
 73
     0
 90
        0
 40
-0.6
 41
-30.0
 62
     5
 63
     7
 74
     1
 91
        4
 64
     7
 65
   257
 75
     1
175
     1
 42
1.0
 92
        0
 66
   257
 43
1.0
 76
     1
 77
     6
 78
     2
 67
     7
 79
     5
170
     0
171
     0
290
     0
174
     0
 93
        1
 44
0.0
173
     0
291
     0
 45
0.0
1001
ACAD
1000
AcDbSavedByObjectVersion
1070
     0
  0
VISUALSTYLE
  5
32
102
{ACAD_REACTORS
330
2A
102
}
102
{ACAD_XDICTIONARY
360
3F1
102
}
330
2A
100
AcDbVisualStyle
  2
Basic
 70
     7
 71
     1
 72
     0
 73
     1
 90
        0
 40
-0.6
 41
-30.0
 62
     5
 63
     7
 74
     0
 91
        4
 64
     7
 65
   257
 75
     1
175
     1
 42
1.0
 92
        8
 66
     7
 43
1.0
 76
     1
 77
     6
 78
     2
 67
     7
 79
     5
170
     0
171
     0
290
     0
174
     0
 93
        1
 44
0.0
173
     0
291
     1
 45
0.0
1001
ACAD
1000
AcDbSavedByObjectVersion
1070
     0
  0
VISUALSTYLE
  5
36
102
{ACAD_REACTORS
330
2A
102
}
102
{ACAD_XDICTIONARY
360
3F9
102
}
330
2A
100
AcDbVisualStyle
  2
Brighten
 70
    12
 71
     2
 72
     2
 73
     0
 90
        0
 40
-0.6
 41
-30.0
 62
     5
 63
     7
 74
     1
 91
        4
 64
     7
 65
   257
 75
     1
175
     1
 42
1.0
 92
        8
 66
     7
 43
1.0
 76
     1
 77
     6
 78
     2
 67
     7
 79
     5
170
     0
171
     0
290
     0
174
     0
 93
        1
 44
50.0
173
     0
291
     1
 45
0.0
1001
ACAD
1000
AcDbSavedByObjectVersion
1070
     0
  0
VISUALSTYLE
  5
3A
102
{ACAD_REACTORS
330
2A
102
}
102
{ACAD_XDICTIONARY
360
401
102
}
330
2A
100
AcDbVisualStyle
  2
ColorChange
 70
    16
 71
     2
 72
     2
 73
     3
 90
        0
 40
-0.6
 41
-30.0
 62
     5
 63
     8
 74
     1
 91
        4
 64
     7
 65
   257
 75
     1
175
     1
 42
1.0
 92
        8
 66
     8
 43
1.0
 76
     1
 77
     6
 78
     2
 67
     7
 79
     5
170
     0
171
     0
290
     0
174
     0
 93
        1
 44
0.0
173
     0
291
     1
 45
0.0
1001
ACAD
1000
AcDbSavedByObjectVersion
1070
     0
  0
VISUALSTYLE
  5
34
102
{ACAD_REACTORS
330
2A
102
}
102
{ACAD_XDICTIONARY
360
3F5
102
}
330
2A
100
AcDbVisualStyle
  2
Conceptual
 70
     9
 71
     3
 72
     2
 73
     0
 90
        0
 40
-0.6
 41
-30.0
 62
     5
 63
     7
 74
     2
 91
        2
 64
     7
 65
   257
 75
     1
175
     1
 42
40.0
 92
        8
 66
     7
 43
1.0
 76
     1
 77
     6
 78
     2
 67
     7
 79
     3
170
     0
171
     0
290
     0
174
     0
 93
        1
 44
0.0
173
     0
291
     0
 45
0.0
1001
ACAD
1000
AcDbSavedByObjectVersion
1070
     0
  0
VISUALSTYLE
  5
35
102
{ACAD_REACTORS
330
2A
102
}
102
{ACAD_XDICTIONARY
360
3F7
102
}
330
2A
100
AcDbVisualStyle
  2
Dim
 70
    11
 71
     2
 72
     2
 73
     0
 90
        0
 40
-0.6
 41
-30.0
 62
     5
 63
     7
 74
     1
 91
        4
 64
     7
 65
   257
 75
     1
175
     1
 42
1.0
 92
        8
 66
     7
 43
1.0
 76
     1
 77
     6
 78
     2
 67
     7
 79
     5
170
     0
171
     0
290
     0
174
     0
 93
        1
 44
-50.0
173
     0
291
     1
 45
0.0
1001
ACAD
1000
AcDbSavedByObjectVersion
1070
     0
  0
VISUALSTYLE
  5
39
102
{ACAD_REACTORS
330
2A
102
}
102
{ACAD_XDICTIONARY
360
3FF
102
}
330
2A
100
AcDbVisualStyle
  2
Facepattern
 70
    15
 71
     2
 72
     2
 73
     0
 90
        0
 40
-0.6
 41
-30.0
 62
     5
 63
     7
 74
     1
 91
        4
 64
     7
 65
   257
 75
     1
175
     1
 42
1.0
 92
        8
 66
     7
 43
1.0
 76
     1
 77
     6
 78
     2
 67
     7
 79
     5
170
     0
171
     0
290
     0
174
     0
 93
        1
 44
0.0
173
     0
291
     1
 45
0.0
1001
ACAD
1000
AcDbSavedByObjectVersion
1070
     0
  0
VISUALSTYLE
  5
2B
102
{ACAD_REACTORS
330
2A
102
}
102
{ACAD_XDICTIONARY
360
3E3
102
}
330
2A
100
AcDbVisualStyle
  2
Flat
 70
     0
 71
     2
 72
     1
 73
     1
 90
        2
 40
-0.6
 41
30.0
 62
     5
 63
     7
 74
     0
 91
        4
 64
     7
 65
   257
 75
     1
175
     1
 42
1.0
 92
        8
 66
     7
 43
1.0
 76
     1
 77
     6
 78
     2
 67
     7
 79
     5
170
     0
171
     0
290
     0
174
     0
 93
       13
 44
0.0
173
     0
291
     1
 45
0.0
1001
ACAD
1000
AcDbSavedByObjectVersion
1070
     0
  0
VISUALSTYLE
  5
2C
102
{ACAD_REACTORS
330
2A
102
}
102
{ACAD_XDICTIONARY
360
3E5
102
}
330
2A
100
AcDbVisualStyle
  2
FlatWithEdges
 70
     1
 71
     2
 72
     1
 73
     1
 90
        2
 40
-0.6
 41
30.0
 62
     5
 63
     7
 74
     1
 91
        4
 64
     7
 65
   257
 75
     1
175
     1
 42
1.0
 92
        0
 66
   257
 43
1.0
 76
     1
 77
     6
 78
     2
 67
     7
 79
     5
170
     0
171
     0
290
     0
174
     0
 93
       13
 44
0.0
173
     0
291
     1
 45
0.0
1001
ACAD
1000
AcDbSavedByObjectVersion
1070
     0
  0
VISUALSTYLE
  5
2D
102
{ACAD_REACTORS
330
2A
102
}
102
{ACAD_XDICTIONARY
360
3E7
102
}
330
2A
100
AcDbVisualStyle
  2
Gouraud
 70
     2
 71
     2
 72
     2
 73
     1
 90
        2
 40
-0.6
 41
30.0
 62
     5
 63
     7
 74
     0
 91
        4
 64
     7
 65
   257
 75
     1
175
     1
 42
1.0
 92
        0
 66
     7
 43
1.0
 76
     1
 77
     6
 78
     2
 67
     7
 79
     5
170
     0
171
     0
290
     0
174
     0
 93
       13
 44
0.0
173
     0
291
     1
 45
0.0
1001
ACAD
1000
AcDbSavedByObjectVersion
1070
     0
  0
VISUALSTYLE
  5
2E
102
{ACAD_REACTORS
330
2A
102
}
102
{ACAD_XDICTIONARY
360
3E9
102
}
330
2A
100
AcDbVisualStyle
  2
GouraudWithEdges
 70
     3
 71
     2
 72
     2
 73
     1
 90
        2
 40
-0.6
 41
30.0
 62
     5
 63
     7
 74
     1
 91
        4
 64
     7
 65
   257
 75
     1
175
     1
 42
1.0
 92
        0
 66
   257
 43
1.0
 76
     1
 77
     6
 78
     2
 67
     7
 79
     5
170
     0
171
     0
290
     0
174
     0
 93
       13
 44
0.0
173
     0
291
     1
 45
0.0
1001
ACAD
1000
AcDbSavedByObjectVersion
1070
     0
  0
VISUALSTYLE
  5
38
102
{ACAD_REACTORS
330
2A
102
}
102
{ACAD_XDICTIONARY
360
3FD
102
}
330
2A
100
AcDbVisualStyle
  2
Linepattern
 70
    14
 71
     2
 72
     2
 73
     0
 90
        0
 40
-0.6
 41
-30.0
 62
     5
 63
     7
 74
     1
 91
        4
 64
     7
 65
   257
 75
     7
175
     7
 42
1.0
 92
        8
 66
     7
 43
1.0
 76
     1
 77
     6
 78
     2
 67
     7
 79
     5
170
     0
171
     0
290
     0
174
     0
 93
        1
 44
0.0
173
     0
291
     1
 45
0.0
1001
ACAD
1000
AcDbSavedByObjectVersion
1070
     0
  0
VISUALSTYLE
  5
33
102
{ACAD_REACTORS
330
2A
102
}
102
{ACAD_XDICTIONARY
360
3F3
102
}
330
2A
100
AcDbVisualStyle
  2
Realistic
 70
     8
 71
     2
 72
     2
 73
     0
 90
        0
 40
-0.6
 41
-30.0
 62
     5
 63
     7
 74
     1
 91
        0
 64
     7
 65
   257
 75
     1
175
     1
 42
1.0
 92
        8
 66
     8
 43
1.0
 76
     1
 77
     6
 78
     2
 67
     7
 79
     5
170
     0
171
     0
290
     0
174
     0
 93
       13
 44
0.0
173
     0
291
     0
 45
0.0
1001
ACAD
1000
AcDbSavedByObjectVersion
1070
     0
  0
VISUALSTYLE
  5
37
102
{ACAD_REACTORS
330
2A
102
}
102
{ACAD_XDICTIONARY
360
3FB
102
}
330
2A
100
AcDbVisualStyle
  2
Thicken
 70
    13
 71
     2
 72
     2
 73
     0
 90
        0
 40
-0.6
 41
-30.0
 62
     5
 63
     7
 74
     1
 91
        4
 64
     7
 65
   257
 75
     1
175
     1
 42
1.0
 92
       12
 66
     7
 43
1.0
 76
     1
 77
     6
 78
     2
 67
     7
 79
     5
170
     0
171
     0
290
     0
174
     0
 93
        1
 44
0.0
173
     0
291
     1
 45
0.0
1001
ACAD
1000
AcDbSavedByObjectVersion
1070
     0
  0
DICTIONARYVAR
  5
3E1
102
{ACAD_REACTORS
330
3DE
102
}
330
3DE
100
DictionaryVariables
280
     0
  1
2
  0
DICTIONARYVAR
  5
3E2
102
{ACAD_REACTORS
330
3DE
102
}
330
3DE
100
DictionaryVariables
280
     0
  1
1
  0
DICTIONARY
  5
405
330
3D
100
AcDbDictionary
280
     1
281
     1
  3
ACAD_XREC_ROUNDTRIP
360
406
  0
DICTIONARY
  5
403
330
3C
100
AcDbDictionary
280
     1
281
     1
  3
ACAD_XREC_ROUNDTRIP
360
404
  0
DICTIONARY
  5
407
330
3E
100
AcDbDictionary
280
     1
281
     1
  3
ACAD_XREC_ROUNDTRIP
360
408
  0
DICTIONARY
  5
3EB
330
2F
100
AcDbDictionary
280
     1
281
     1
  3
ACAD_XREC_ROUNDTRIP
360
3EC
  0
DICTIONARY
  5
3EF
330
31
100
AcDbDictionary
280
     1
281
     1
  3
ACAD_XREC_ROUNDTRIP
360
3F0
  0
DICTIONARY
  5
3ED
330
30
100
AcDbDictionary
280
     1
281
     1
  3
ACAD_XREC_ROUNDTRIP
360
3EE
  0
DICTIONARY
  5
3F1
330
32
100
AcDbDictionary
280
     1
281
     1
  3
ACAD_XREC_ROUNDTRIP
360
3F2
  0
DICTIONARY
  5
3F9
330
36
100
AcDbDictionary
280
     1
281
     1
  3
ACAD_XREC_ROUNDTRIP
360
3FA
  0
DICTIONARY
  5
401
330
3A
100
AcDbDictionary
280
     1
281
     1
  3
ACAD_XREC_ROUNDTRIP
360
402
  0
DICTIONARY
  5
3F5
330
34
100
AcDbDictionary
280
     1
281
     1
  3
ACAD_XREC_ROUNDTRIP
360
3F6
  0
DICTIONARY
  5
3F7
330
35
100
AcDbDictionary
280
     1
281
     1
  3
ACAD_XREC_ROUNDTRIP
360
3F8
  0
DICTIONARY
  5
3FF
330
39
100
AcDbDictionary
280
     1
281
     1
  3
ACAD_XREC_ROUNDTRIP
360
400
  0
DICTIONARY
  5
3E3
330
2B
100
AcDbDictionary
280
     1
281
     1
  3
ACAD_XREC_ROUNDTRIP
360
3E4
  0
DICTIONARY
  5
3E5
330
2C
100
AcDbDictionary
280
     1
281
     1
  3
ACAD_XREC_ROUNDTRIP
360
3E6
  0
DICTIONARY
  5
3E7
330
2D
100
AcDbDictionary
280
     1
281
     1
  3
ACAD_XREC_ROUNDTRIP
360
3E8
  0
DICTIONARY
  5
3E9
330
2E
100
AcDbDictionary
280
     1
281
     1
  3
ACAD_XREC_ROUNDTRIP
360
3EA
  0
DICTIONARY
  5
3FD
330
38
100
AcDbDictionary
280
     1
281
     1
  3
ACAD_XREC_ROUNDTRIP
360
3FE
  0
DICTIONARY
  5
3F3
330
33
100
AcDbDictionary
280
     1
281
     1
  3
ACAD_XREC_ROUNDTRIP
360
3F4
  0
DICTIONARY
  5
3FB
330
37
100
AcDbDictionary
280
     1
281
     1
  3
ACAD_XREC_ROUNDTRIP
360
3FC
  0
XRECORD
  5
406
102
{ACAD_REACTORS
330
405
102
}
330
405
100
AcDbXrecord
280
     1
102
MATERIAL
148
0.0
149
0.0
149
0.0
 93
        0
 94
      127
282
     0
 72
     1
 77
     1
171
     1
175
     1
179
     1
273
     0
  0
XRECORD
  5
404
102
{ACAD_REACTORS
330
403
102
}
330
403
100
AcDbXrecord
280
     1
102
MATERIAL
148
0.0
149
0.0
149
0.0
 93
        0
 94
      127
282
     0
 72
     1
 77
     1
171
     1
175
     1
179
     1
273
     0
  0
XRECORD
  5
408
102
{ACAD_REACTORS
330
407
102
}
330
407
100
AcDbXrecord
280
     1
102
MATERIAL
148
0.0
149
0.0
149
0.0
 93
        0
 94
      127
282
     0
 72
     1
 77
     1
171
     1
175
     1
179
     1
273
     0
  0
XRECORD
  5
3EC
102
{ACAD_REACTORS
330
3EB
102
}
330
3EB
100
AcDbXrecord
280
     1
102
RTVSPropertyOp0
 70
     1
102
RTVSPropertyOp1
 70
     1
102
RTVSPropertyOp2
 70
     1
102
RTVSPropertyOp3
 70
     1
102
RTVSPropertyOp4
 70
     1
102
RTVSPropertyOp5
 70
     1
102
RTVSPropertyOp6
 70
     1
102
RTVSPropertyOp7
 70
     1
102
RTVSPropertyOp8
 70
     1
102
RTVSPropertyOp9
 70
     1
102
RTVSPropertyOp10
 70
     1
102
RTVSPropertyOp11
 70
     1
102
RTVSPropertyOp12
 70
     1
102
RTVSPropertyOp13
 70
     1
102
RTVSPropertyOp14
 70
     1
102
RTVSPropertyOp15
 70
     1
102
RTVSPropertyOp16
 70
     1
102
RTVSPropertyOp17
 70
     1
102
RTVSPropertyOp18
 70
     1
102
RTVSPropertyOp19
 70
     1
102
RTVSPropertyOp20
 70
     1
102
RTVSPropertyOp21
 70
     1
102
RTVSPropertyOp22
 70
     1
102
RTVSPropertyOp23
 70
     1
102
RTVSPropertyOp24
 70
     1
102
RTVSPropertyOp25
 70
     1
102
RTVSPropertyOp26
 70
     1
102
RTVSPropertyOp27
 70
     1
102
RTVSPropertyOp28
 70
     1
102
RTVSPropertyOp29
 70
     1
102
RTVSPropertyOp30
 70
     1
102
RTVSPropertyOp31
 70
     1
102
RTVSPropertyOp32
 70
     1
  0
XRECORD
  5
3F0
102
{ACAD_REACTORS
330
3EF
102
}
330
3EF
100
AcDbXrecord
280
     1
102
RTVSPropertyOp0
 70
     1
102
RTVSPropertyOp1
 70
     1
102
RTVSPropertyOp2
 70
     1
102
RTVSPropertyOp3
 70
     1
102
RTVSPropertyOp4
 70
     1
102
RTVSPropertyOp5
 70
     1
102
RTVSPropertyOp6
 70
     1
102
RTVSPropertyOp7
 70
     1
102
RTVSPropertyOp8
 70
     1
102
RTVSPropertyOp9
 70
     1
102
RTVSPropertyOp10
 70
     1
102
RTVSPropertyOp11
 70
     1
102
RTVSPropertyOp12
 70
     1
102
RTVSPropertyOp13
 70
     1
102
RTVSPropertyOp14
 70
     1
102
RTVSPropertyOp15
 70
     1
102
RTVSPropertyOp16
 70
     1
102
RTVSPropertyOp17
 70
     1
102
RTVSPropertyOp18
 70
     1
102
RTVSPropertyOp19
 70
     1
102
RTVSPropertyOp20
 70
     1
102
RTVSPropertyOp21
 70
     1
102
RTVSPropertyOp22
 70
     1
102
RTVSPropertyOp23
 70
     1
102
RTVSPropertyOp24
 70
     1
102
RTVSPropertyOp25
 70
     1
102
RTVSPropertyOp26
 70
     1
102
RTVSPropertyOp27
 70
     1
102
RTVSPropertyOp28
 70
     1
102
RTVSPropertyOp29
 70
     1
102
RTVSPropertyOp30
 70
     1
102
RTVSPropertyOp31
 70
     1
102
RTVSPropertyOp32
 70
     1
  0
XRECORD
  5
3EE
102
{ACAD_REACTORS
330
3ED
102
}
330
3ED
100
AcDbXrecord
280
     1
102
RTVSPropertyOp0
 70
     1
102
RTVSPropertyOp1
 70
     1
102
RTVSPropertyOp2
 70
     1
102
RTVSPropertyOp3
 70
     1
102
RTVSPropertyOp4
 70
     1
102
RTVSPropertyOp5
 70
     1
102
RTVSPropertyOp6
 70
     1
102
RTVSPropertyOp7
 70
     1
102
RTVSPropertyOp8
 70
     1
102
RTVSPropertyOp9
 70
     1
102
RTVSPropertyOp10
 70
     1
102
RTVSPropertyOp11
 70
     1
102
RTVSPropertyOp12
 70
     1
102
RTVSPropertyOp13
 70
     1
102
RTVSPropertyOp14
 70
     1
102
RTVSPropertyOp15
 70
     1
102
RTVSPropertyOp16
 70
     1
102
RTVSPropertyOp17
 70
     1
102
RTVSPropertyOp18
 70
     1
102
RTVSPropertyOp19
 70
     1
102
RTVSPropertyOp20
 70
     1
102
RTVSPropertyOp21
 70
     1
102
RTVSPropertyOp22
 70
     1
102
RTVSPropertyOp23
 70
     1
102
RTVSPropertyOp24
 70
     1
102
RTVSPropertyOp25
 70
     1
102
RTVSPropertyOp26
 70
     1
102
RTVSPropertyOp27
 70
     1
102
RTVSPropertyOp28
 70
     1
102
RTVSPropertyOp29
 70
     1
102
RTVSPropertyOp30
 70
     1
102
RTVSPropertyOp31
 70
     1
102
RTVSPropertyOp32
 70
     1
  0
XRECORD
  5
3F2
102
{ACAD_REACTORS
330
3F1
102
}
330
3F1
100
AcDbXrecord
280
     1
102
RTVSPropertyOp0
 70
     1
102
RTVSPropertyOp1
 70
     1
102
RTVSPropertyOp2
 70
     1
102
RTVSPropertyOp3
 70
     1
102
RTVSPropertyOp4
 70
     1
102
RTVSPropertyOp5
 70
     1
102
RTVSPropertyOp6
 70
     1
102
RTVSPropertyOp7
 70
     1
102
RTVSPropertyOp8
 70
     1
102
RTVSPropertyOp9
 70
     1
102
RTVSPropertyOp10
 70
     1
102
RTVSPropertyOp11
 70
     1
102
RTVSPropertyOp12
 70
     1
102
RTVSPropertyOp13
 70
     1
102
RTVSPropertyOp14
 70
     1
102
RTVSPropertyOp15
 70
     1
102
RTVSPropertyOp16
 70
     1
102
RTVSPropertyOp17
 70
     1
102
RTVSPropertyOp18
 70
     1
102
RTVSPropertyOp19
 70
     1
102
RTVSPropertyOp20
 70
     1
102
RTVSPropertyOp21
 70
     1
102
RTVSPropertyOp22
 70
     1
102
RTVSPropertyOp23
 70
     1
102
RTVSPropertyOp24
 70
     1
102
RTVSPropertyOp25
 70
     1
102
RTVSPropertyOp26
 70
     1
102
RTVSPropertyOp27
 70
     1
102
RTVSPropertyOp28
 70
     1
102
RTVSPropertyOp29
 70
     1
102
RTVSPropertyOp30
 70
     1
102
RTVSPropertyOp31
 70
     1
102
RTVSPropertyOp32
 70
     1
  0
XRECORD
  5
3FA
102
{ACAD_REACTORS
330
3F9
102
}
330
3F9
100
AcDbXrecord
280
     1
102
RTVSPropertyOp0
 70
     1
102
RTVSPropertyOp1
 70
     1
102
RTVSPropertyOp2
 70
     1
102
RTVSPropertyOp3
 70
     1
102
RTVSPropertyOp4
 70
     1
102
RTVSPropertyOp5
 70
     1
102
RTVSPropertyOp6
 70
     1
102
RTVSPropertyOp7
 70
     1
102
RTVSPropertyOp8
 70
     1
102
RTVSPropertyOp9
 70
     1
102
RTVSPropertyOp10
 70
     1
102
RTVSPropertyOp11
 70
     1
102
RTVSPropertyOp12
 70
     1
102
RTVSPropertyOp13
 70
     1
102
RTVSPropertyOp14
 70
     1
102
RTVSPropertyOp15
 70
     1
102
RTVSPropertyOp16
 70
     1
102
RTVSPropertyOp17
 70
     1
102
RTVSPropertyOp18
 70
     1
102
RTVSPropertyOp19
 70
     1
102
RTVSPropertyOp20
 70
     1
102
RTVSPropertyOp21
 70
     1
102
RTVSPropertyOp22
 70
     1
102
RTVSPropertyOp23
 70
     1
102
RTVSPropertyOp24
 70
     1
102
RTVSPropertyOp25
 70
     1
102
RTVSPropertyOp26
 70
     1
102
RTVSPropertyOp27
 70
     1
102
RTVSPropertyOp28
 70
     1
102
RTVSPropertyOp29
 70
     1
102
RTVSPropertyOp30
 70
     1
102
RTVSPropertyOp31
 70
     1
102
RTVSPropertyOp32
 70
     1
  0
XRECORD
  5
402
102
{ACAD_REACTORS
330
401
102
}
330
401
100
AcDbXrecord
280
     1
102
RTVSPropertyOp0
 70
     1
102
RTVSPropertyOp1
 70
     1
102
RTVSPropertyOp2
 70
     1
102
RTVSPropertyOp3
 70
     1
102
RTVSPropertyOp4
 70
     1
102
RTVSPropertyOp5
 70
     1
102
RTVSPropertyOp6
 70
     1
102
RTVSPropertyOp7
 70
     1
102
RTVSPropertyOp8
 70
     1
102
RTVSPropertyOp9
 70
     1
102
RTVSPropertyOp10
 70
     1
102
RTVSPropertyOp11
 70
     1
102
RTVSPropertyOp12
 70
     1
102
RTVSPropertyOp13
 70
     1
102
RTVSPropertyOp14
 70
     1
102
RTVSPropertyOp15
 70
     1
102
RTVSPropertyOp16
 70
     1
102
RTVSPropertyOp17
 70
     1
102
RTVSPropertyOp18
 70
     1
102
RTVSPropertyOp19
 70
     1
102
RTVSPropertyOp20
 70
     1
102
RTVSPropertyOp21
 70
     1
102
RTVSPropertyOp22
 70
     1
102
RTVSPropertyOp23
 70
     1
102
RTVSPropertyOp24
 70
     1
102
RTVSPropertyOp25
 70
     1
102
RTVSPropertyOp26
 70
     1
102
RTVSPropertyOp27
 70
     1
102
RTVSPropertyOp28
 70
     1
102
RTVSPropertyOp29
 70
     1
102
RTVSPropertyOp30
 70
     1
102
RTVSPropertyOp31
 70
     1
102
RTVSPropertyOp32
 70
     1
  0
XRECORD
  5
3F6
102
{ACAD_REACTORS
330
3F5
102
}
330
3F5
100
AcDbXrecord
280
     1
102
RTVSPropertyOp0
 70
     1
102
RTVSPropertyOp1
 70
     1
102
RTVSPropertyOp2
 70
     1
102
RTVSPropertyOp3
 70
     1
102
RTVSPropertyOp4
 70
     1
102
RTVSPropertyOp5
 70
     1
102
RTVSPropertyOp6
 70
     1
102
RTVSPropertyOp7
 70
     1
102
RTVSPropertyOp8
 70
     1
102
RTVSPropertyOp9
 70
     1
102
RTVSPropertyOp10
 70
     1
102
RTVSPropertyOp11
 70
     1
102
RTVSPropertyOp12
 70
     1
102
RTVSPropertyOp13
 70
     1
102
RTVSPropertyOp14
 70
     1
102
RTVSPropertyOp15
 70
     1
102
RTVSPropertyOp16
 70
     1
102
RTVSPropertyOp17
 70
     1
102
RTVSPropertyOp18
 70
     1
102
RTVSPropertyOp19
 70
     1
102
RTVSPropertyOp20
 70
     1
102
RTVSPropertyOp21
 70
     1
102
RTVSPropertyOp22
 70
     1
102
RTVSPropertyOp23
 70
     1
102
RTVSPropertyOp24
 70
     1
102
RTVSPropertyOp25
 70
     1
102
RTVSPropertyOp26
 70
     1
102
RTVSPropertyOp27
 70
     1
102
RTVSPropertyOp28
 70
     1
102
RTVSPropertyOp29
 70
     1
102
RTVSPropertyOp30
 70
     1
102
RTVSPropertyOp31
 70
     1
102
RTVSPropertyOp32
 70
     1
  0
XRECORD
  5
3F8
102
{ACAD_REACTORS
330
3F7
102
}
330
3F7
100
AcDbXrecord
280
     1
102
RTVSPropertyOp0
 70
     1
102
RTVSPropertyOp1
 70
     1
102
RTVSPropertyOp2
 70
     1
102
RTVSPropertyOp3
 70
     1
102
RTVSPropertyOp4
 70
     1
102
RTVSPropertyOp5
 70
     1
102
RTVSPropertyOp6
 70
     1
102
RTVSPropertyOp7
 70
     1
102
RTVSPropertyOp8
 70
     1
102
RTVSPropertyOp9
 70
     1
102
RTVSPropertyOp10
 70
     1
102
RTVSPropertyOp11
 70
     1
102
RTVSPropertyOp12
 70
     1
102
RTVSPropertyOp13
 70
     1
102
RTVSPropertyOp14
 70
     1
102
RTVSPropertyOp15
 70
     1
102
RTVSPropertyOp16
 70
     1
102
RTVSPropertyOp17
 70
     1
102
RTVSPropertyOp18
 70
     1
102
RTVSPropertyOp19
 70
     1
102
RTVSPropertyOp20
 70
     1
102
RTVSPropertyOp21
 70
     1
102
RTVSPropertyOp22
 70
     1
102
RTVSPropertyOp23
 70
     1
102
RTVSPropertyOp24
 70
     1
102
RTVSPropertyOp25
 70
     1
102
RTVSPropertyOp26
 70
     1
102
RTVSPropertyOp27
 70
     1
102
RTVSPropertyOp28
 70
     1
102
RTVSPropertyOp29
 70
     1
102
RTVSPropertyOp30
 70
     1
102
RTVSPropertyOp31
 70
     1
102
RTVSPropertyOp32
 70
     1
  0
XRECORD
  5
400
102
{ACAD_REACTORS
330
3FF
102
}
330
3FF
100
AcDbXrecord
280
     1
102
RTVSPropertyOp0
 70
     1
102
RTVSPropertyOp1
 70
     1
102
RTVSPropertyOp2
 70
     1
102
RTVSPropertyOp3
 70
     1
102
RTVSPropertyOp4
 70
     1
102
RTVSPropertyOp5
 70
     1
102
RTVSPropertyOp6
 70
     1
102
RTVSPropertyOp7
 70
     1
102
RTVSPropertyOp8
 70
     1
102
RTVSPropertyOp9
 70
     1
102
RTVSPropertyOp10
 70
     1
102
RTVSPropertyOp11
 70
     1
102
RTVSPropertyOp12
 70
     1
102
RTVSPropertyOp13
 70
     1
102
RTVSPropertyOp14
 70
     1
102
RTVSPropertyOp15
 70
     1
102
RTVSPropertyOp16
 70
     1
102
RTVSPropertyOp17
 70
     1
102
RTVSPropertyOp18
 70
     1
102
RTVSPropertyOp19
 70
     1
102
RTVSPropertyOp20
 70
     1
102
RTVSPropertyOp21
 70
     1
102
RTVSPropertyOp22
 70
     1
102
RTVSPropertyOp23
 70
     1
102
RTVSPropertyOp24
 70
     1
102
RTVSPropertyOp25
 70
     1
102
RTVSPropertyOp26
 70
     1
102
RTVSPropertyOp27
 70
     1
102
RTVSPropertyOp28
 70
     1
102
RTVSPropertyOp29
 70
     1
102
RTVSPropertyOp30
 70
     1
102
RTVSPropertyOp31
 70
     1
102
RTVSPropertyOp32
 70
     1
  0
XRECORD
  5
3E4
102
{ACAD_REACTORS
330
3E3
102
}
330
3E3
100
AcDbXrecord
280
     1
102
RTVSPropertyOp0
 70
     1
102
RTVSPropertyOp1
 70
     1
102
RTVSPropertyOp2
 70
     1
102
RTVSPropertyOp3
 70
     1
102
RTVSPropertyOp4
 70
     1
102
RTVSPropertyOp5
 70
     1
102
RTVSPropertyOp6
 70
     1
102
RTVSPropertyOp7
 70
     1
102
RTVSPropertyOp8
 70
     1
102
RTVSPropertyOp9
 70
     1
102
RTVSPropertyOp10
 70
     1
102
RTVSPropertyOp11
 70
     1
102
RTVSPropertyOp12
 70
     1
102
RTVSPropertyOp13
 70
     1
102
RTVSPropertyOp14
 70
     1
102
RTVSPropertyOp15
 70
     1
102
RTVSPropertyOp16
 70
     1
102
RTVSPropertyOp17
 70
     1
102
RTVSPropertyOp18
 70
     1
102
RTVSPropertyOp19
 70
     1
102
RTVSPropertyOp20
 70
     1
102
RTVSPropertyOp21
 70
     1
102
RTVSPropertyOp22
 70
     1
102
RTVSPropertyOp23
 70
     1
102
RTVSPropertyOp24
 70
     1
102
RTVSPropertyOp25
 70
     1
102
RTVSPropertyOp26
 70
     1
102
RTVSPropertyOp27
 70
     1
102
RTVSPropertyOp28
 70
     1
102
RTVSPropertyOp29
 70
     1
102
RTVSPropertyOp30
 70
     1
102
RTVSPropertyOp31
 70
     1
102
RTVSPropertyOp32
 70
     1
  0
XRECORD
  5
3E6
102
{ACAD_REACTORS
330
3E5
102
}
330
3E5
100
AcDbXrecord
280
     1
102
RTVSPropertyOp0
 70
     1
102
RTVSPropertyOp1
 70
     1
102
RTVSPropertyOp2
 70
     1
102
RTVSPropertyOp3
 70
     1
102
RTVSPropertyOp4
 70
     1
102
RTVSPropertyOp5
 70
     1
102
RTVSPropertyOp6
 70
     1
102
RTVSPropertyOp7
 70
     1
102
RTVSPropertyOp8
 70
     1
102
RTVSPropertyOp9
 70
     1
102
RTVSPropertyOp10
 70
     1
102
RTVSPropertyOp11
 70
     1
102
RTVSPropertyOp12
 70
     1
102
RTVSPropertyOp13
 70
     1
102
RTVSPropertyOp14
 70
     1
102
RTVSPropertyOp15
 70
     1
102
RTVSPropertyOp16
 70
     1
102
RTVSPropertyOp17
 70
     1
102
RTVSPropertyOp18
 70
     1
102
RTVSPropertyOp19
 70
     1
102
RTVSPropertyOp20
 70
     1
102
RTVSPropertyOp21
 70
     1
102
RTVSPropertyOp22
 70
     1
102
RTVSPropertyOp23
 70
     1
102
RTVSPropertyOp24
 70
     1
102
RTVSPropertyOp25
 70
     1
102
RTVSPropertyOp26
 70
     1
102
RTVSPropertyOp27
 70
     1
102
RTVSPropertyOp28
 70
     1
102
RTVSPropertyOp29
 70
     1
102
RTVSPropertyOp30
 70
     1
102
RTVSPropertyOp31
 70
     1
102
RTVSPropertyOp32
 70
     1
  0
XRECORD
  5
3E8
102
{ACAD_REACTORS
330
3E7
102
}
330
3E7
100
AcDbXrecord
280
     1
102
RTVSPropertyOp0
 70
     1
102
RTVSPropertyOp1
 70
     1
102
RTVSPropertyOp2
 70
     1
102
RTVSPropertyOp3
 70
     1
102
RTVSPropertyOp4
 70
     1
102
RTVSPropertyOp5
 70
     1
102
RTVSPropertyOp6
 70
     1
102
RTVSPropertyOp7
 70
     1
102
RTVSPropertyOp8
 70
     1
102
RTVSPropertyOp9
 70
     1
102
RTVSPropertyOp10
 70
     1
102
RTVSPropertyOp11
 70
     1
102
RTVSPropertyOp12
 70
     1
102
RTVSPropertyOp13
 70
     1
102
RTVSPropertyOp14
 70
     1
102
RTVSPropertyOp15
 70
     1
102
RTVSPropertyOp16
 70
     1
102
RTVSPropertyOp17
 70
     1
102
RTVSPropertyOp18
 70
     1
102
RTVSPropertyOp19
 70
     1
102
RTVSPropertyOp20
 70
     1
102
RTVSPropertyOp21
 70
     1
102
RTVSPropertyOp22
 70
     1
102
RTVSPropertyOp23
 70
     1
102
RTVSPropertyOp24
 70
     1
102
RTVSPropertyOp25
 70
     1
102
RTVSPropertyOp26
 70
     1
102
RTVSPropertyOp27
 70
     1
102
RTVSPropertyOp28
 70
     1
102
RTVSPropertyOp29
 70
     1
102
RTVSPropertyOp30
 70
     1
102
RTVSPropertyOp31
 70
     1
102
RTVSPropertyOp32
 70
     1
  0
XRECORD
  5
3EA
102
{ACAD_REACTORS
330
3E9
102
}
330
3E9
100
AcDbXrecord
280
     1
102
RTVSPropertyOp0
 70
     1
102
RTVSPropertyOp1
 70
     1
102
RTVSPropertyOp2
 70
     1
102
RTVSPropertyOp3
 70
     1
102
RTVSPropertyOp4
 70
     1
102
RTVSPropertyOp5
 70
     1
102
RTVSPropertyOp6
 70
     1
102
RTVSPropertyOp7
 70
     1
102
RTVSPropertyOp8
 70
     1
102
RTVSPropertyOp9
 70
     1
102
RTVSPropertyOp10
 70
     1
102
RTVSPropertyOp11
 70
     1
102
RTVSPropertyOp12
 70
     1
102
RTVSPropertyOp13
 70
     1
102
RTVSPropertyOp14
 70
     1
102
RTVSPropertyOp15
 70
     1
102
RTVSPropertyOp16
 70
     1
102
RTVSPropertyOp17
 70
     1
102
RTVSPropertyOp18
 70
     1
102
RTVSPropertyOp19
 70
     1
102
RTVSPropertyOp20
 70
     1
102
RTVSPropertyOp21
 70
     1
102
RTVSPropertyOp22
 70
     1
102
RTVSPropertyOp23
 70
     1
102
RTVSPropertyOp24
 70
     1
102
RTVSPropertyOp25
 70
     1
102
RTVSPropertyOp26
 70
     1
102
RTVSPropertyOp27
 70
     1
102
RTVSPropertyOp28
 70
     1
102
RTVSPropertyOp29
 70
     1
102
RTVSPropertyOp30
 70
     1
102
RTVSPropertyOp31
 70
     1
102
RTVSPropertyOp32
 70
     1
  0
XRECORD
  5
3FE
102
{ACAD_REACTORS
330
3FD
102
}
330
3FD
100
AcDbXrecord
280
     1
102
RTVSPropertyOp0
 70
     1
102
RTVSPropertyOp1
 70
     1
102
RTVSPropertyOp2
 70
     1
102
RTVSPropertyOp3
 70
     1
102
RTVSPropertyOp4
 70
     1
102
RTVSPropertyOp5
 70
     1
102
RTVSPropertyOp6
 70
     1
102
RTVSPropertyOp7
 70
     1
102
RTVSPropertyOp8
 70
     1
102
RTVSPropertyOp9
 70
     1
102
RTVSPropertyOp10
 70
     1
102
RTVSPropertyOp11
 70
     1
102
RTVSPropertyOp12
 70
     1
102
RTVSPropertyOp13
 70
     1
102
RTVSPropertyOp14
 70
     1
102
RTVSPropertyOp15
 70
     1
102
RTVSPropertyOp16
 70
     1
102
RTVSPropertyOp17
 70
     1
102
RTVSPropertyOp18
 70
     1
102
RTVSPropertyOp19
 70
     1
102
RTVSPropertyOp20
 70
     1
102
RTVSPropertyOp21
 70
     1
102
RTVSPropertyOp22
 70
     1
102
RTVSPropertyOp23
 70
     1
102
RTVSPropertyOp24
 70
     1
102
RTVSPropertyOp25
 70
     1
102
RTVSPropertyOp26
 70
     1
102
RTVSPropertyOp27
 70
     1
102
RTVSPropertyOp28
 70
     1
102
RTVSPropertyOp29
 70
     1
102
RTVSPropertyOp30
 70
     1
102
RTVSPropertyOp31
 70
     1
102
RTVSPropertyOp32
 70
     1
  0
XRECORD
  5
3F4
102
{ACAD_REACTORS
330
3F3
102
}
330
3F3
100
AcDbXrecord
280
     1
102
RTVSPropertyOp0
 70
     1
102
RTVSPropertyOp1
 70
     1
102
RTVSPropertyOp2
 70
     1
102
RTVSPropertyOp3
 70
     1
102
RTVSPropertyOp4
 70
     1
102
RTVSPropertyOp5
 70
     1
102
RTVSPropertyOp6
 70
     1
102
RTVSPropertyOp7
 70
     1
102
RTVSPropertyOp8
 70
     1
102
RTVSPropertyOp9
 70
     1
102
RTVSPropertyOp10
 70
     1
102
RTVSPropertyOp11
 70
     1
102
RTVSPropertyOp12
 70
     1
102
RTVSPropertyOp13
 70
     1
102
RTVSPropertyOp14
 70
     1
102
RTVSPropertyOp15
 70
     1
102
RTVSPropertyOp16
 70
     1
102
RTVSPropertyOp17
 70
     1
102
RTVSPropertyOp18
 70
     1
102
RTVSPropertyOp19
 70
     1
102
RTVSPropertyOp20
 70
     1
102
RTVSPropertyOp21
 70
     1
102
RTVSPropertyOp22
 70
     1
102
RTVSPropertyOp23
 70
     1
102
RTVSPropertyOp24
 70
     1
102
RTVSPropertyOp25
 70
     1
102
RTVSPropertyOp26
 70
     1
102
RTVSPropertyOp27
 70
     1
102
RTVSPropertyOp28
 70
     1
102
RTVSPropertyOp29
 70
     1
102
RTVSPropertyOp30
 70
     1
102
RTVSPropertyOp31
 70
     1
102
RTVSPropertyOp32
 70
     1
  0
XRECORD
  5
3FC
102
{ACAD_REACTORS
330
3FB
102
}
330
3FB
100
AcDbXrecord
280
     1
102
RTVSPropertyOp0
 70
     1
102
RTVSPropertyOp1
 70
     1
102
RTVSPropertyOp2
 70
     1
102
RTVSPropertyOp3
 70
     1
102
RTVSPropertyOp4
 70
     1
102
RTVSPropertyOp5
 70
     1
102
RTVSPropertyOp6
 70
     1
102
RTVSPropertyOp7
 70
     1
102
RTVSPropertyOp8
 70
     1
102
RTVSPropertyOp9
 70
     1
102
RTVSPropertyOp10
 70
     1
102
RTVSPropertyOp11
 70
     1
102
RTVSPropertyOp12
 70
     1
102
RTVSPropertyOp13
 70
     1
102
RTVSPropertyOp14
 70
     1
102
RTVSPropertyOp15
 70
     1
102
RTVSPropertyOp16
 70
     1
102
RTVSPropertyOp17
 70
     1
102
RTVSPropertyOp18
 70
     1
102
RTVSPropertyOp19
 70
     1
102
RTVSPropertyOp20
 70
     1
102
RTVSPropertyOp21
 70
     1
102
RTVSPropertyOp22
 70
     1
102
RTVSPropertyOp23
 70
     1
102
RTVSPropertyOp24
 70
     1
102
RTVSPropertyOp25
 70
     1
102
RTVSPropertyOp26
 70
     1
102
RTVSPropertyOp27
 70
     1
102
RTVSPropertyOp28
 70
     1
102
RTVSPropertyOp29
 70
     1
102
RTVSPropertyOp30
 70
     1
102
RTVSPropertyOp31
 70
     1
102
RTVSPropertyOp32
 70
     1
  0
ENDSEC
  0
EOF
